<?xml version="1.0" standalone="no"?>
<!DOCTYPE svg PUBLIC "-//W3C//DTD SVG 1.1//EN" "http://www.w3.org/Graphics/SVG/1.1/DTD/svg11.dtd" >
<svg xmlns="http://www.w3.org/2000/svg">
<metadata>Generated by IcoMoon</metadata>
<defs>
<font id="icomoon" horiz-adv-x="1024">
<font-face units-per-em="1024" ascent="960" descent="-64" />
<missing-glyph horiz-adv-x="1024" />
<glyph unicode="&#x20;" horiz-adv-x="512" d="" />
<glyph unicode="&#xe900;" d="M475.959 956.656c0-7.183 0-14.367 0-21.55 1.019-8.82 2.009-17.738 2.972-26.752 1.074-16.519 2.064-33.115 2.972-49.788 0-5.202 0-10.403 0-15.605-1.891 0.259-3.377-0.36-4.459-1.858-4.343-0.392-8.678-0.268-13.004 0.372-5.269-1.138-10.594-1.634-15.977-1.486-6.12-1.797-12.561-2.787-19.321-2.972-2.622-1.429-5.595-1.924-8.917-1.486-1.587-1.389-3.568-1.885-5.945-1.486-2.108-1.413-4.586-1.909-7.431-1.486-1.587-1.389-3.568-1.885-5.945-1.486-1.391-1.161-3.125-1.904-5.202-2.229-1.922-0.728-3.904-0.976-5.945-0.743-0.082-0.458-0.33-0.83-0.743-1.115-4.706-1.199-9.413-2.314-14.119-3.344-4.036-2.336-8.494-3.823-13.376-4.459-4.688-2.232-9.641-4.214-14.862-5.945-1.943-0.571-3.924-0.82-5.945-0.743 0-0.743 0-1.486 0-2.229-4.904-1.14-9.611-2.874-14.119-5.202-1.263 0.977-2.501 0.977-3.716 0 0-0.743 0-1.486 0-2.229-4.461-1.362-8.671-3.344-12.633-5.945-1.696-0.537-3.43-0.785-5.202-0.743 0-0.743 0-1.486 0-2.229-4.19-2.031-8.525-3.765-13.004-5.202-1.381-2.484-3.486-3.476-6.316-2.972-5.746-4.494-11.939-8.457-18.578-11.89-1.635-1.573-3.617-2.812-5.945-3.716-1.097-1.025-1.84-2.264-2.229-3.716-2.972-1.982-5.945-3.963-8.917-5.945-1.64-0.843-3.374-1.338-5.202-1.486 0-0.496 0-0.991 0-1.486-1.337-2.085-3.319-3.076-5.945-2.972 0.086-2.534-1.152-3.525-3.716-2.972 0.024-1.575-0.719-2.565-2.229-2.972-3.31-1.954-6.282-4.431-8.917-7.431-4.133-3.386-8.096-7.101-11.89-11.147-1.509-0.499-2.995-0.994-4.459-1.486-1.37-2.368-3.352-3.854-5.945-4.459-0.496-0.991-0.991-1.982-1.486-2.972-1.7-0.427-3.311-1.17-4.83-2.229 0.14-2.773-0.975-4.879-3.344-6.316-2.163-0.245-4.021-1.112-5.573-2.601-0.33-2.252-1.197-4.234-2.601-5.945-1.423-2.172-3.157-4.154-5.202-5.945-0.69-0.884-0.938-1.874-0.743-2.972-1.786 0.039-3.519-0.209-5.202-0.743-2.334-5.793-5.802-10.747-10.403-14.862-1.324-0.907-2.81-1.401-4.459-1.486 0-0.496 0-0.991 0-1.486 0.255-1.474-0.241-2.465-1.486-2.972 0-0.991-0.496-1.486-1.486-1.486 0.268-3.469-1.219-5.451-4.459-5.945 0.268-3.469-1.219-5.451-4.459-5.945-1.053-3.141-2.539-6.114-4.459-8.917-4.535-4.294-8.251-9.249-11.147-14.862-0.681-0.466-1.425-0.714-2.229-0.743 0-0.247 0-0.496 0-0.743-3.745-7.671-7.584-15.35-11.518-23.036-2.783-2.911-4.392-6.38-4.83-10.403-0.991 0-1.982 0-2.972 0-0.008-1.521-0.256-3.007-0.743-4.459-4.488-9.072-8.946-17.989-13.376-26.752 0.056-1.801-0.687-3.163-2.229-4.087 0.247-0.743 0.496-1.486 0.743-2.229-0.803-2.108-1.794-3.966-2.972-5.573 0.353-1.919-0.143-3.405-1.486-4.459-0.148-4.134-0.891-8.097-2.229-11.89-0.743 0-1.486 0-2.229 0-0.247-2.972-0.496-5.945-0.743-8.917-0.743 0-1.486 0-2.229 0-0.191-5.055-0.934-10.009-2.229-14.862-0.743 0-1.486 0-2.229 0 0.314-1.695-0.181-2.934-1.486-3.716-0.496 0-0.991 0-1.486 0 0-0.991 0-1.982 0-2.972 0-0.247 0-0.496 0-0.743 0.887-0.349 1.382-1.092 1.486-2.229-0.528-2.452-0.775-4.929-0.743-7.431-0.743 0-1.486 0-2.229 0 0.423-2.845-0.073-5.323-1.486-7.431 0.398-2.376-0.097-4.358-1.486-5.945-0.259-5.014-1.002-9.968-2.229-14.862-0.681-0.466-1.424-0.714-2.229-0.743 0-1.486 0-2.972 0-4.459 0-0.496 0-0.991 0-1.486 0.854-0.216 1.349-0.835 1.486-1.858-1.767-9.432-2.51-18.969-2.229-28.61-0.743 0-1.486 0-2.229 0 0.478-8.46-0.017-16.634-1.486-24.522-0.495 0-0.991 0-1.486 0 0-9.413 0-18.825 0-28.238 1.239 0 2.477 0 3.716 0 0.022-7.937-0.226-15.864-0.743-23.779 1.293-9.235 2.779-18.648 4.459-28.238 0.119-1.378-0.377-2.369-1.486-2.972 0-1.239 0-2.477 0-3.716s0-2.477 0-3.716c1.15-0.239 1.646-0.982 1.486-2.229 0-1.486 0-2.972 0-4.459 0.991 0 1.982 0 2.972 0 0.688-4.433 1.183-8.891 1.486-13.376 1.389-1.587 1.884-3.568 1.486-5.945 1.414-2.108 1.909-4.586 1.486-7.431 1.653-3.12 2.643-6.588 2.972-10.403 0-0.991 0-1.982 0-2.972 0-0.496 0-0.991 0-1.486 0.496 0 0.991 0 1.486 0 1.389-1.587 1.885-3.568 1.486-5.945 1.344-1.054 1.839-2.54 1.486-4.459 1.659-4.956 3.64-9.91 5.945-14.862 1.265-1.709 1.76-3.691 1.486-5.945 1.706-1.904 2.697-4.257 2.972-7.060-0.006-1.268-0.254-2.383-0.743-3.344 0-0.247 0-0.496 0-0.743-0.176-0.959 0.071-1.702 0.743-2.229 0.496 0 0.991 0 1.486 0 1.202-0.4 2.44-0.647 3.716-0.743 1.028-3.351 1.772-6.819 2.229-10.403 0-0.498 0-0.988 0-1.486 2.497-4.734 4.726-9.69 6.688-14.862 0.743 0 1.486 0 2.229 0 1.683-4.86 3.789-9.564 6.316-14.119 2.602-2.415 4.088-5.388 4.459-8.917 3.752-3.322 3.133-5.298-1.858-5.945-0.247 0-0.496 0-0.743 0-0.239-1.152-0.982-1.642-2.229-1.486 0.059-1.063-0.189-2.051-0.743-2.972-2.759-0.594-5.36-1.59-7.803-2.972-1.070 0.483-2.185 0.728-3.344 0.743-0.607-3.337-2.588-5.068-5.945-5.202-0.508-1.248-1.499-1.739-2.972-1.486 0-0.743 0-1.486 0-2.229-4.115-0.825-8.078-2.058-11.89-3.716-0.21-0.951-0.705-1.694-1.486-2.229-4.641-2.318-9.347-4.674-14.119-7.060-2.115-2.437-4.84-3.552-8.174-3.344-0.508-1.248-1.499-1.739-2.972-1.486-0.508-1.248-1.499-1.739-2.972-1.486 0-0.743 0-1.486 0-2.229-2.538-1.523-5.263-2.757-8.174-3.716-0.593 0.342-0.84 0.832-0.743 1.486-0.248 0-0.495 0-0.743 0-0.959 0.178-1.702-0.074-2.229-0.743 0-0.743 0-1.486 0-2.229-0.336-0.713-0.832-1.33-1.486-1.858-5.221-2.987-10.671-5.336-16.348-7.060-0.248 0-0.495 0-0.743 0-0.024-3.247 0.223-6.465 0.743-9.66 2.437-0.394 3.428-1.88 2.972-4.459 1.246-0.505 1.741-1.501 1.486-2.972 1.246-0.505 1.741-1.501 1.486-2.972 1.063 0.059 2.054-0.186 2.972-0.743 0.657-2.891 1.648-5.618 2.972-8.174 1.263-0.022 2.254-0.513 2.972-1.486 1.544-2.735 3.030-5.588 4.459-8.546 3.168-2.943 5.149-6.532 5.945-10.775 0.873 0.163 1.616-0.082 2.229-0.743 0.923-2.534 2.533-4.518 4.83-5.945 0.367-1.211 0.491-2.452 0.372-3.716 2.934-0.453 4.668-2.192 5.202-5.202 1.582-0.959 2.82-2.2 3.716-3.716 3.15-0.765 6.37-1.263 9.66-1.486-0.111 0.78 0.013 1.523 0.372 2.229 3.173 3.678 6.765 6.77 10.775 9.289 1.881 0.334 3.614 0.951 5.202 1.858 0.548 3.27 2.53 5.001 5.945 5.202 1.852 3.834 4.824 6.309 8.917 7.431 1.653 4.109 4.625 6.339 8.917 6.688 0.548 3.27 2.53 5.001 5.945 5.202 1.092 1.494 2.33 2.735 3.716 3.716-0.163 0.877 0.085 1.62 0.743 2.229 1.855 0.557 3.589 1.3 5.202 2.229 0.462 1.204 1.205 2.192 2.229 2.972 0.303 0.847 0.799 1.59 1.486 2.229 1.855 0.557 3.589 1.3 5.202 2.229 1.486 0.988 2.972 1.984 4.459 2.972 0.496 1.486 1.486 2.475 2.972 2.972 1.256 3.493 3.733 5.477 7.431 5.945 0.462 1.204 1.205 2.192 2.229 2.972 1.72 3.827 3.207 3.827 4.459 0 1.937-2.437 3.918-4.919 5.945-7.431 0.991 0 1.486-0.498 1.486-1.486 1.245-0.505 1.741-1.501 1.486-2.972 2.436-1.449 4.418-3.426 5.945-5.945 6.864-7.855 14.295-15.286 22.293-22.293 1.867-1.613 3.105-3.597 3.716-5.945 0.991 0 1.486-0.498 1.486-1.486 2.725-0.245 4.211-1.731 4.459-4.459 1.601 0.097 3.088-0.275 4.459-1.115 5.202-4.704 10.403-9.415 15.605-14.119 3.428-1.523 6.153-3.872 8.174-7.060 8.162-6.309 16.583-12.254 25.266-17.835 1.899-1.070 3.88-1.94 5.945-2.601 1.424-1.553 2.91-2.913 4.459-4.087 0.95-0.208 1.693-0.706 2.229-1.486 3.962-2.475 8.173-4.585 12.633-6.316 1.259-1.442 2.498-2.802 3.716-4.087 2.526-0.082 4.508-1.070 5.945-2.972 2.78 0.669 4.266-0.32 4.459-2.972 1.474 0.253 2.465-0.238 2.972-1.486 1.474 0.253 2.465-0.238 2.972-1.486 4.87-0.097 9.329-1.456 13.376-4.087 1.142-0.825 1.637-1.94 1.486-3.344 0-0.498 0-0.988 0-1.486 1.486 0 2.972 0 4.459 0 1.474 0.253 2.465-0.238 2.972-1.486 2.021 0.074 4.002-0.171 5.945-0.743 2.44-1.174 4.918-2.162 7.431-2.972 0-0.743 0-1.486 0-2.229 2.253-0.007 4.482-0.253 6.688-0.743 12.69-4.644 25.323-9.103 37.898-13.376 6.929-1.486 13.865-2.972 20.807-4.459 8.090-1.769 16.264-3.5 24.522-5.202 0.372-1.025 1.115-1.523 2.229-1.486 1.343 0.349 2.705 0.602 4.087 0.743 4.586-0.765 8.92-1.754 13.004-2.972 5.754 0.468 11.203-0.030 16.348-1.486 7.72 0.476 15.151-0.022 22.293-1.486 12.633 0 25.266 0 37.898 0 7.391 1.471 15.069 1.962 23.036 1.486 0.496 0 0.743 0.245 0.743 0.743 4.281 0.951 8.616 0.706 13.004-0.743 1.765 0.238 2.632 1.226 2.601 2.972 2.972 0 5.945 0 8.917 0 0.754 0.936 1.868 1.434 3.344 1.486 2.137-0.572 4.242-0.944 6.316-1.115 0.622 0.751 0.869 1.62 0.743 2.601 4.485 0.305 8.943 0.795 13.376 1.486 4.59 1.91 9.544 2.898 14.862 2.972 0.62 0.929 1.61 1.419 2.972 1.486 4.517 0.513 8.976 1.256 13.376 2.229 0 0.743 0 1.486 0 2.229 6.818 1.144 13.506 2.883 20.064 5.202 8.203 3.032 16.377 6.004 24.522 8.917 4.428 1.813 8.887 3.671 13.376 5.573 2.561 0.49 5.038 1.107 7.431 1.858 2.171 2.311 4.896 3.797 8.174 4.459 0 0.743 0 1.486 0 2.229 3.553-0.208 6.525 0.907 8.917 3.344 0.961 0.364 1.952 0.49 2.972 0.372 0.508 1.248 1.499 1.739 2.972 1.486 0.508 1.248 1.499 1.739 2.972 1.486 0.508 1.248 1.499 1.739 2.972 1.486 0.508 1.248 1.499 1.739 2.972 1.486 0 0.988 0.496 1.486 1.486 1.486 0.508 1.248 1.499 1.739 2.972 1.486 0.508 1.248 1.499 1.739 2.972 1.486 0.395 2.437 1.881 3.426 4.459 2.972 1.506 1.746 3.488 2.735 5.945 2.972 0.379 3.106 2.11 4.592 5.202 4.459 0.245 0 0.498 0 0.743 0 0.505 1.248 1.501 1.739 2.972 1.486 0.461 2.437 1.947 3.426 4.459 2.972 0.030 0.803 0.275 1.546 0.743 2.229 2.371 1.308 4.6 2.794 6.688 4.459 0.884 0.691 1.873 0.936 2.972 0.743 0.862 3.5 3.091 5.484 6.688 5.945 6.116 5.298 12.558 10.247 19.321 14.862 1.464 3.195 3.938 4.927 7.431 5.202-0.007 1.962 0.981 2.958 2.972 2.972 0.483 2.467 1.969 3.953 4.459 4.459 2.326 5.291 6.287 8.761 11.89 10.403 0.498 0 0.988 0 1.486 0 0 0.498 0 0.988 0 1.486-0.334 1.865 0.163 3.351 1.486 4.459 1.449 1.954 3.433 2.943 5.945 2.972 0.498 0 0.988 0 1.486 0 0 0.498 0 0.988 0 1.486-0.178 1.783 0.32 3.27 1.486 4.459 2.972 2.475 5.945 4.957 8.917 7.431 0 0.988 0.498 1.486 1.486 1.486s1.486 0.498 1.486 1.486c-0.453 2.579 0.535 4.065 2.972 4.459 0.015 1.992 1.011 2.98 2.972 2.972 0.996 2.021 1.984 4.005 2.972 5.945 0.245 0 0.498 0 0.743 0 1.494 1.761 2.735 3.738 3.716 5.945 0.758-1.003 1.501-1.999 2.229-2.972 0.245 0 0.498 0 0.743 0 1.338-1.219 2.579-2.579 3.716-4.087 2.222-0.104 3.463-1.219 3.716-3.344 1.687-1.546 3.671-2.66 5.945-3.344 0.981-0.609 1.479-1.471 1.486-2.601 0.988 0 1.486-0.498 1.486-1.486 2.296 0.223 3.53-0.765 3.716-2.972 1.523 0.074 2.764-0.424 3.716-1.486 2.534-1.999 5.016-3.983 7.431-5.945 0.498-0.988 0.988-1.984 1.486-2.972 1.613-0.929 3.344-1.672 5.202-2.229 0.661-0.609 0.907-1.352 0.743-2.229 2.296-0.297 4.273-1.293 5.945-2.972 1.003-0.758 1.501-1.754 1.486-2.972 1.486-0.498 2.475-1.486 2.972-2.972 1.613-0.929 3.344-1.672 5.202-2.229 0.661-0.609 0.907-1.352 0.743-2.229 3.797-0.334 6.279-2.311 7.431-5.945 4.682-1.59 8.152-4.563 10.403-8.917 1.635 0.282 2.868-0.216 3.716-1.486 4.429-3.292 8.642-6.881 12.633-10.775 1.969-0.372 3.946-0.49 5.945-0.372 1.546 1.687 2.66 3.671 3.344 5.945 0.609 0.981 1.471 1.479 2.601 1.486 2.593 0.728 3.582 2.467 2.972 5.202 1.873 1.39 3.114 3.247 3.716 5.573 0.706 0.357 1.449 0.483 2.229 0.372-0.49 3.47 0.996 5.454 4.459 5.945 0.275 3.24 1.761 5.714 4.459 7.431-0.104 2.623 0.884 4.607 2.972 5.945 1.018 1.167 1.761 2.527 2.229 4.087 0.706 0.357 1.449 0.483 2.229 0.372-0.253 1.471 0.238 2.467 1.486 2.972 0.498 0 0.988 0 1.486 0 0 0.988 0.498 1.486 1.486 1.486 0 0.245 0 0.498 0 0.743 0 0.743 0 1.486 0 2.229-0.253 1.471 0.238 2.467 1.486 2.972-0.334 1.865 0.163 3.351 1.486 4.459 0.498 0 0.988 0 1.486 0-0.669 2.779 0.32 4.265 2.972 4.459 0.059 1.613 0.557 3.099 1.486 4.459-0.163 1.070-0.535 2.058-1.115 2.972-3.21 1.605-5.811 3.834-7.803 6.688-2.794 0.097-5.521 0.587-8.174 1.486-0.268 0.505-0.52 1.003-0.743 1.486-4.362 0.743-6.837 3.218-7.431 7.431-0.498 0-0.988 0-1.486 0-0.988 0-1.486 0.498-1.486 1.486-0.245 0-0.498 0-0.743 0-1.754-0.119-3.485 0-5.202 0.372-1.092 0.528-1.59 1.397-1.486 2.601-5.187 1.969-10.389 4.199-15.605 6.688-0.661 0.609-0.907 1.352-0.743 2.229-1.085-0.052-2.073 0.201-2.972 0.743-3.448 0.728-6.42 2.214-8.917 4.459-0.669 0.528-0.921 1.271-0.743 2.229-1.969 0.424-3.946 0.921-5.945 1.486-1.36 0.416-2.348 1.159-2.972 2.229-2.46 0.238-4.436 1.226-5.945 2.972-0.498 0-0.988 0-1.486 0-2.623 1.137-4.109 3.121-4.459 5.945-0.253 0.624-0.751 0.869-1.486 0.743-2.081-0.847-4.31-0.966-6.688-0.372-1.94 1.731-3.678 3.589-5.202 5.573-2.281 0.52-4.511 1.263-6.688 2.229-0.817 1.999-0.699 3.983 0.372 5.945 0.498 0.557 1.115 0.81 1.858 0.743 0.795 0.691 1.783 0.944 2.972 0.743 0 0.988 0 1.984 0 2.972-0.253 1.471 0.238 2.467 1.486 2.972-0.253 1.471 0.238 2.467 1.486 2.972-0.253 1.471 0.238 2.467 1.486 2.972-0.253 1.471 0.238 2.467 1.486 2.972 0.238 2.46 1.226 4.436 2.972 5.945 0.238 2.46 1.226 4.436 2.972 5.945 2.363 7.126 5.090 14.060 8.174 20.807 2.645 8.057 5.492 15.983 8.546 23.779 0.364 1.214 0.49 2.453 0.372 3.716 0.743 0 1.486 0 2.229 0 1.501 8.472 3.233 16.894 5.202 25.266 0.743 0 1.486 0 2.229 0 0.736 3.426 1.226 6.895 1.486 10.403 0.988 0 1.984 0 2.972 0 0 0.991 0 1.982 0 2.972 0 0.247 0 0.496 0 0.743-1.308 0.782-1.798 2.021-1.486 3.716 0.743 0 1.486 0 2.229 0-0.32 2.805 0.178 5.406 1.486 7.803-0.817 1.512-1.315 3.123-1.486 4.83 1.219 3.617 1.717 7.333 1.486 11.147 1.204-0.104 2.073 0.392 2.601 1.486-0.364 2.095-0.245 4.077 0.372 5.945 0 3.963 0 7.927 0 11.89 1.553-0.037 2.541 0.706 2.972 2.229-1.063 2.105-1.561 4.335-1.486 6.688-0.23 1.801 0.022 3.535 0.743 5.202 1.315 0.572 2.058 1.563 2.229 2.972-0.788 4.921-1.286 9.874-1.486 14.862 0.074 2.429 0.572 4.659 1.486 6.688-0.149 18.836-0.647 37.662-1.486 56.476-0.461 0.082-0.832 0.33-1.115 0.743-1.226 16.86-3.574 33.456-7.060 49.788-1.486 6.931-2.972 13.866-4.459 20.807-1.858 8.189-3.842 16.363-5.945 24.522-0.743 0-1.486 0-2.229 0-1.025 5.305-2.512 10.507-4.459 15.605-0.528 2.452-0.773 4.929-0.743 7.431-1.152 0.239-1.642 0.982-1.486 2.229-0.743 0-1.486 0-2.229 0-1.308 3.833-2.051 7.797-2.229 11.89-1.248 0.508-1.739 1.499-1.486 2.972-1.248 0.508-1.739 1.499-1.486 2.972-1.345 1.054-1.835 2.54-1.486 4.459-1.248 0.508-1.739 1.499-1.486 2.972-1.248 0.508-1.739 1.499-1.486 2.972-1.248 0.508-1.739 1.499-1.486 2.972-1.248 0.508-1.739 1.499-1.486 2.972-1.248 0.508-1.739 1.499-1.486 2.972-1.248 0.508-1.739 1.499-1.486 2.972-1.248 0.508-1.739 1.499-1.486 2.972-1.248 0.508-1.739 1.499-1.486 2.972-0.743 0-1.486 0-2.229 0-2.133 4.268-3.864 8.727-5.202 13.376-2.764 4.569-5.737 9.028-8.917 13.376-1.657 2.573-3.143 5.297-4.459 8.174 0 1.239 0 2.477 0 3.716-1.189-0.199-2.177 0.049-2.972 0.743-1.248 0.508-1.739 1.499-1.486 2.972-1.13 0.008-1.992 0.503-2.601 1.486-1.382 2.77-2.749 5.495-4.087 8.174-1.040 0.446-1.783 1.189-2.229 2.229-2.601 2.377-4.332 5.35-5.202 8.917-3.255 0.538-4.741 2.519-4.459 5.945-4.399 1.424-6.881 4.396-7.431 8.917-0.78-0.111-1.523 0.013-2.229 0.372-3.693 5.194-8.026 10.024-13.004 14.491-0.84 1.371-1.211 2.857-1.115 4.459-1.063-0.059-2.051 0.189-2.972 0.743-5.536 5.892-11.236 11.589-17.091 17.091-0.78 1.264-1.523 2.503-2.229 3.716-2.006 0.69-3.738 1.68-5.202 2.972-2.006 1.757-3.738 3.739-5.202 5.945-2.512 2.026-4.994 4.008-7.431 5.945-0.988 0-1.486 0.496-1.486 1.486-1.642 1.636-3.626 2.626-5.945 2.972 0 0.991 0 1.982 0 2.972-1.018-0.117-2.014 0.007-2.972 0.372-1.226 1.856-2.965 2.971-5.202 3.344-1.835 3.082-4.317 5.312-7.431 6.688 0 0.496 0 0.991 0 1.486-3.47-0.493-5.454 0.994-5.945 4.459-1.263-0.119-2.504 0.004-3.716 0.372-2.727 1.734-5.447 3.468-8.174 5.202-1.657 1.217-2.653 2.828-2.972 4.83-1.471-0.255-2.467 0.241-2.972 1.486-2.705 0.237-5.179 1.104-7.431 2.601-1.142 0.825-1.637 1.94-1.486 3.344-3.387-0.025-6.36 0.966-8.917 2.972 0 0.496 0 0.991 0 1.486-2.578-0.456-4.064 0.536-4.459 2.972-1.474-0.255-2.465 0.241-2.972 1.486-4.25 0.635-8.214 2.122-11.89 4.459-1.005 0.761-1.501 1.752-1.486 2.972-13.202 5.093-26.33 10.295-39.385 15.605 0 0.743 0 1.486 0 2.229-1.462 0.178-2.825-0.070-4.087-0.743-3.595 2.611-7.682 3.849-12.261 3.716 0 0.743 0 1.486 0 2.229-6.455 1.572-12.896 3.306-19.321 5.202-1.839 0.345-3.325 1.088-4.459 2.229-1.919-0.353-3.405 0.143-4.459 1.486-2.376-0.398-4.358 0.097-5.945 1.486-11.85 2.32-23.74 4.549-35.669 6.688-2.556 0.302-4.785 1.045-6.688 2.229-4.288-0.456-8.251 0.040-11.89 1.486-4.775-0.461-9.234 0.035-13.376 1.486-8.591-2.428-12.058 0.669-10.403 9.289 0.212 5.12 0.955 10.074 2.229 14.862-0.299 4.208-0.548 8.419-0.743 12.633 0.011 2.657 0.507 5.010 1.486 7.060-0.245 4.732 0.003 9.439 0.743 14.119 0.834 0.84 1.825 1.335 2.972 1.486 0 4.211 0 8.422 0 12.633 0 0.248 0 0.495 0 0.743-0.484 0.439-0.979 0.934-1.486 1.486-0.247 1.734-0.496 3.468-0.743 5.202 0.022 2.058 0.516 3.792 1.486 5.202 0 5.202 0 10.403 0 15.605 0 4.954 0 9.908 0 14.862-24.275-0.976-48.55-0.976-72.824 0zM466.299 811.007c2.477 0 4.954 0 7.431 0s4.954 0 7.431 0c-0.121-1.752 0.002-3.485 0.372-5.202 0.149-1.352 0.768-2.343 1.858-2.972 0-3.716 0-7.431 0-11.147-0.123-4.465 0.001-8.924 0.372-13.376 0.285-0.413 0.656-0.661 1.115-0.743 0-3.963 0-7.927 0-11.89-0.123-3.971 0.001-7.934 0.372-11.89 0.285-0.413 0.656-0.661 1.115-0.743 0-0.991 0-1.982 0-2.972 0-0.247 0-0.496 0-0.743 0.117-16.856 0.613-33.7 1.486-50.531-3.926 0.3-7.641-0.195-11.147-1.486-1.239 0-2.477 0-3.716 0-2.243 0.123-4.472-0.001-6.688-0.372-0.681-0.207-1.176-0.578-1.486-1.115-1.239 0-2.477 0-3.716 0-1.752 0.121-3.485-0.002-5.202-0.372-0.413-0.285-0.661-0.656-0.743-1.115-0.991 0-1.982 0-2.972 0-3.809 0.425-7.029-0.566-9.66-2.972-0.743 0-1.486 0-2.229 0-2.146 0.379-3.88-0.116-5.202-1.486-2.376 0.398-4.358-0.097-5.945-1.486-0.743 0-1.486 0-2.229 0-1.526 0.073-2.764-0.423-3.716-1.486-0.743 0-1.486 0-2.229 0-1.135 0.054-1.878-0.441-2.229-1.486-0.496 0-0.991 0-1.486 0-2.867-0.201-5.344-1.191-7.431-2.972-1.633 0.282-2.872-0.213-3.716-1.486-0.247 0-0.496 0-0.743 0-1.633 0.282-2.872-0.213-3.716-1.486-0.247 0-0.496 0-0.743 0-1.474 0.255-2.465-0.241-2.972-1.486-0.496 0-0.991 0-1.486 0-1.397 0.201-2.388-0.294-2.972-1.486-2.526-0.081-4.508-1.072-5.945-2.972-1.633 0.282-2.872-0.213-3.716-1.486-0.247 0-0.496 0-0.743 0-1.397 0.201-2.388-0.294-2.972-1.486-0.737 0.128-1.232-0.12-1.486-0.743-1.084 0.050-2.075-0.198-2.972-0.743-2.976-0.742-5.454-2.228-7.431-4.459-3.704-1.357-7.172-3.091-10.403-5.202-0.737 0.128-1.232-0.12-1.486-0.743-2.892-1.161-5.369-2.894-7.431-5.202-1.624-0.152-3.11-0.647-4.459-1.486-1.404-0.82-2.642-1.811-3.716-2.972-0.496 0-0.743-0.247-0.743-0.743-0.496-0.247-0.991-0.496-1.486-0.743-1.404-0.82-2.642-1.811-3.716-2.972-0.991 0-1.486-0.496-1.486-1.486-0.959 0.176-1.702-0.071-2.229-0.743-2.445-1.207-4.427-2.94-5.945-5.202-0.899-0.321-1.642-0.817-2.229-1.486-1.749-0.624-3.235-1.616-4.459-2.972-1.734-0.247-2.725-1.239-2.972-2.972-2.196-1.205-4.178-2.692-5.945-4.459-0.991 0-1.486-0.496-1.486-1.486-1.311-0.614-2.302-1.604-2.972-2.972-0.991 0-1.486-0.496-1.486-1.486-4.291-3.418-8.502-7.010-12.633-10.775-3.872-4.24-7.587-8.575-11.147-13.004 0-0.247 0-0.496 0-0.743-3.275-2.035-5.752-4.76-7.431-8.174 0-0.247 0-0.496 0-0.743-2.507-1.764-4.489-3.993-5.945-6.688-1.3-0.861-2.044-2.1-2.229-3.716-0.623-0.254-0.871-0.749-0.743-1.486-0.991 0-1.486-0.496-1.486-1.486-1.239-0.743-2.229-1.734-2.972-2.972 0-0.247 0-0.496 0-0.743-1.161-1.074-2.152-2.312-2.972-3.716 0-0.247 0-0.496 0-0.743-0.919-1.089-1.662-2.327-2.229-3.716-0.623-0.254-0.871-0.749-0.743-1.486-1.024-0.777-1.767-1.767-2.229-2.972-2.168-2.014-3.654-4.491-4.459-7.431-0.872-0.754-1.367-1.744-1.486-2.972-2.171-2.038-3.657-4.514-4.459-7.431-1.192-0.585-1.688-1.575-1.486-2.972 0-0.496 0-0.991 0-1.486-0.743-0.247-1.239-0.743-1.486-1.486 0-0.496 0-0.991 0-1.486-1.192-0.585-1.688-1.575-1.486-2.972-1.17-0.325-2.037-1.068-2.601-2.229-1.461-3.13-2.576-6.351-3.344-9.66 0-0.496 0-0.991 0-1.486-0.991 0-1.486-0.496-1.486-1.486 0-0.496 0-0.991 0-1.486-1.245-0.508-1.741-1.499-1.486-2.972 0-0.496 0-0.991 0-1.486-0.991 0-1.486-0.496-1.486-1.486-0.458-0.082-0.83-0.33-1.115-0.743-0.84-2.188-1.459-4.418-1.858-6.688 0-0.247 0-0.496 0-0.743-1.273-0.843-1.769-2.082-1.486-3.716-0.144-2.103-0.64-4.084-1.486-5.945-1.063-0.951-1.559-2.19-1.486-3.716 0-0.247 0-0.496 0-0.743-2.735-4.233-4.221-8.94-4.459-14.119 0-0.247 0-0.496 0-0.743-1.312-1.949-1.807-4.178-1.486-6.688 0-0.991 0-1.982 0-2.972-1.323-1.107-1.818-2.593-1.486-4.459 0-1.239 0-2.477 0-3.716-1.273-0.843-1.769-2.082-1.486-3.716 0-1.239 0-2.477 0-3.716-1.213-2.272-2.080-4.749-2.601-7.431-3.447-27.247-3.447-54.495 0-81.742 0.65-2.156 1.517-4.138 2.601-5.945 0-1.239 0-2.477 0-3.716-0.331-1.865 0.163-3.351 1.486-4.459 0-1.486 0-2.972 0-4.459-0.282-1.633 0.213-2.872 1.486-3.716 0-1.239 0-2.477 0-3.716-0.12-1.506 0.004-2.992 0.372-4.459 0.285-0.413 0.656-0.661 1.115-0.743 0-0.247 0-0.496 0-0.743-0.059-3.595 0.561-7.062 1.858-10.403 0.166-1.769 1.033-3.007 2.601-3.716 0-0.247 0-0.496 0-0.743-0.314-1.695 0.181-2.934 1.486-3.716 0-0.743 0-1.486 0-2.229-0.054-1.135 0.441-1.878 1.486-2.229 0-0.743 0-1.486 0-2.229 0.647-4.070 1.761-8.033 3.344-11.89 0.772-0.899 1.639-1.642 2.601-2.229 0.085-1.648 0.58-3.134 1.486-4.459-0.255-1.474 0.241-2.465 1.486-2.972 0-0.496 0-0.991 0-1.486-0.201-1.397 0.294-2.388 1.486-2.972 0.141-3.506 1.627-6.231 4.459-8.174 0-0.247 0-0.496 0-0.743-0.054-1.135 0.441-1.878 1.486-2.229 0-0.247 0-0.496 0-0.743-0.054-1.135 0.441-1.878 1.486-2.229 0-0.247 0-0.496 0-0.743 0.5-3.49 1.986-6.463 4.459-8.917-0.399-1.885-1.39-3.371-2.972-4.459-0.781-0.537-1.277-1.28-1.486-2.229-3.222-1.361-6.195-3.095-8.917-5.202-0.899-0.321-1.642-0.817-2.229-1.486-0.247 0-0.496 0-0.743 0-3.494-1.993-6.962-3.975-10.403-5.945-1.135 0.054-1.878-0.441-2.229-1.486-1.239-0.496-2.477-0.991-3.716-1.486-3.62-1.433-6.84-3.415-9.66-5.945-0.247 0-0.496 0-0.743 0-1.135 0.054-1.878-0.441-2.229-1.486-0.247 0-0.496 0-0.743 0-1.135 0.054-1.878-0.438-2.229-1.486-0.247 0-0.496 0-0.743 0-2.726-1.115-5.203-2.601-7.431-4.459-1.248 0.156-1.991-0.334-2.229-1.486-0.247 0-0.496 0-0.743 0-1.135 0.052-1.878-0.438-2.229-1.486-0.247 0-0.496 0-0.743 0-1.135 0.052-1.878-0.438-2.229-1.486-0.247 0-0.496 0-0.743 0-1.728-0.476-2.967-1.471-3.716-2.972-1.397 0.201-2.388-0.297-2.972-1.486-1.397 0.201-2.388-0.297-2.972-1.486-1.248 0.156-1.991-0.334-2.229-1.486-0.247 0-0.496 0-0.743 0-1.397 0.201-2.388-0.297-2.972-1.486-0.991 0-1.486-0.498-1.486-1.486-1.474 0.253-2.465-0.238-2.972-1.486-1.474 0.253-2.465-0.238-2.972-1.486-1.397 0.201-2.388-0.297-2.972-1.486-1.135 0.052-1.878-0.438-2.229-1.486-0.247 0-0.496 0-0.743 0-0.496 0-0.991 0-1.486 0 0.128 0.736-0.12 1.234-0.743 1.486-1.43 3.79-3.040 7.505-4.83 11.147-0.526 0.654-1.146 1.152-1.858 1.486 0 0.245 0 0.498 0 0.743-0.321 0.899-0.817 1.642-1.486 2.229 0 0.245 0 0.498 0 0.743-0.119 1.226-0.614 2.222-1.486 2.972-0.119 1.226-0.614 2.222-1.486 2.972-0.119 1.226-0.614 2.222-1.486 2.972 0.054 1.135-0.441 1.878-1.486 2.229-0.991 2.229-1.982 4.459-2.972 6.688-0.769 2.596-1.76 5.073-2.972 7.431-0.001 2.723-0.992 4.953-2.972 6.688-0.496 1.239-0.991 2.477-1.486 3.716 0.054 1.135-0.441 1.878-1.486 2.229 0 0.496 0 0.991 0 1.486-0.707 4.109-2.194 7.825-4.459 11.147 0 0.247 0 0.496 0 0.743 0.282 1.633-0.213 2.872-1.486 3.716 0 0.247 0 0.496 0 0.743 0.054 1.135-0.441 1.878-1.486 2.229 0 0.743 0 1.486 0 2.229 0.331 1.865-0.163 3.351-1.486 4.459 0.282 1.633-0.213 2.872-1.486 3.716 0 0.247 0 0.496 0 0.743 0.12 1.506-0.004 2.992-0.372 4.459-0.285 0.413-0.656 0.661-1.115 0.743 0 0.247 0 0.496 0 0.743 0.12 1.506-0.004 2.992-0.372 4.459-0.285 0.413-0.656 0.661-1.115 0.743 0 0.247 0 0.496 0 0.743 0.314 1.695-0.181 2.934-1.486 3.716 0 0.743 0 1.486 0 2.229 0.073 1.526-0.423 2.764-1.486 3.716 0 0.247 0 0.496 0 0.743-0.381 3.99-1 7.953-1.858 11.89-0.285 0.413-0.656 0.661-1.115 0.743 0.122 1.997-0.002 3.979-0.372 5.945-0.207 0.681-0.578 1.176-1.115 1.486 0 0.496 0 0.991 0 1.486 0.353 1.919-0.143 3.405-1.486 4.459 0 1.486 0 2.972 0 4.459 0.123 2.243-0.001 4.472-0.372 6.688-0.285 0.413-0.656 0.661-1.115 0.743 0 0.496 0 0.991 0 1.486 0.12 1.506-0.004 2.992-0.372 4.459-0.285 0.413-0.656 0.661-1.115 0.743 0 0.743 0 1.486 0 2.229 0 0.496 0 0.991 0 1.486-1.011 11.281-1.63 22.675-1.858 34.183-0.285 0.413-0.656 0.661-1.115 0.743 0 1.486 0 2.972 0 4.459 0 6.44 0 12.88 0 19.321 0 0.991 0 1.982 0 2.972 0.458 0.082 0.83 0.33 1.115 0.743 0.372 7.427 0.495 14.858 0.372 22.293 0 0.991 0 1.982 0 2.972 0.458 0.082 0.83 0.33 1.115 0.743 0.37 2.465 0.494 4.942 0.372 7.431 0 0.247 0 0.496 0 0.743 0 1.486 0 2.972 0 4.459 1.312 1.949 1.807 4.178 1.486 6.688 0 0.247 0 0.496 0 0.743 1.403 1.849 1.899 4.078 1.486 6.688 0 1.239 0 2.477 0 3.716 0.458 0.082 0.83 0.33 1.115 0.743 0.088 2.133 0.583 4.115 1.486 5.945 0.37 2.465 0.494 4.942 0.372 7.431 0.458 0.082 0.83 0.33 1.115 0.743 0.636 4.231 1.256 8.441 1.858 12.633 0 0.247 0 0.496 0 0.743 1.598 2.97 2.589 6.19 2.972 9.66 0.458 0.082 0.83 0.33 1.115 0.743 0.369 1.717 0.493 3.45 0.372 5.202 0 0.247 0 0.496 0 0.743 0.458 0.082 0.83 0.33 1.115 0.743 0.368 1.466 0.492 2.952 0.372 4.459 1.323 1.107 1.818 2.593 1.486 4.459 0 0.247 0 0.496 0 0.743 1.273 0.843 1.769 2.082 1.486 3.716 0 0.247 0 0.496 0 0.743 1.192 0.585 1.688 1.575 1.486 2.972 0 0.247 0 0.496 0 0.743 1.273 0.843 1.769 2.082 1.486 3.716 0 0.247 0 0.496 0 0.743 1.045 0.351 1.54 1.095 1.486 2.229 0 0.247 0 0.496 0 0.743 1.328 2.577 2.318 5.302 2.972 8.174 0 0.247 0 0.496 0 0.743 0.67 0.587 1.165 1.33 1.486 2.229 0 0.743 0 1.486 0 2.229 0.67 0.587 1.165 1.33 1.486 2.229 0 0.247 0 0.496 0 0.743 1.045 0.351 1.54 1.095 1.486 2.229 0 0.247 0 0.496 0 0.743 1.273 0.843 1.769 2.082 1.486 3.716 0.872 0.754 1.367 1.744 1.486 2.972 0 0.247 0 0.496 0 0.743 1.045 0.351 1.54 1.095 1.486 2.229 0.792 1.636 1.288 3.37 1.486 5.202 2.928 3.127 4.91 6.843 5.945 11.147 0.872 0.754 1.367 1.744 1.486 2.972 0.292 1.326 0.787 2.564 1.486 3.716 1.98 1.474 3.218 3.456 3.716 5.945 0.496 0 0.743 0.247 0.743 0.743 0.872 0.754 1.367 1.744 1.486 2.972 0.805 2.94 2.291 5.417 4.459 7.431 1.652 1.965 2.89 4.194 3.716 6.688 1.127 1.884 2.118 3.866 2.972 5.945 3.644 3.979 6.617 8.438 8.917 13.376 2.881 2.383 4.863 5.356 5.945 8.917 0.991 0 1.486 0.496 1.486 1.486 1.767 1.767 3.253 3.749 4.459 5.945 2.191 1.392 3.678 3.373 4.459 5.945 3.267 2.28 5.744 5.252 7.431 8.917 1.468 2.085 3.325 3.819 5.573 5.202 0.813 1.173 1.433 2.411 1.858 3.716 0.991 0 1.486 0.496 1.486 1.486 1.127 0.008 1.994 0.503 2.601 1.486 4.228 5.585 8.81 10.787 13.747 15.605 1.239 0.743 2.229 1.734 2.972 2.972 3.788 2.969 7.503 6.065 11.147 9.289 1.459 1.078 2.45 2.44 2.972 4.087 2.807 1.641 5.283 3.623 7.431 5.945 0.991 0 1.486 0.496 1.486 1.486 0.743 0.247 1.239 0.743 1.486 1.486 2.572 0.781 4.553 2.267 5.945 4.459 2.695 1.705 5.173 3.686 7.431 5.945 3.896 1.579 7.117 4.056 9.66 7.431 0.247 0 0.496 0 0.743 0 0.991 0 1.486 0.496 1.486 1.486 3.567 1.090 6.539 3.072 8.917 5.945 1.598 0.858 3.085 1.848 4.459 2.972 3.568 1.092 6.541 3.073 8.917 5.945 1.135-0.054 1.878 0.441 2.229 1.486 0.247 0 0.496 0 0.743 0 3.597 1.85 7.065 3.831 10.403 5.945 5.386 2.423 10.588 5.147 15.605 8.174 1.111 0.363 2.102 0.858 2.972 1.486 5.21 2.11 10.164 4.586 14.862 7.431 1.228 0.119 2.219 0.614 2.972 1.486 2.535 0.403 4.765 1.393 6.688 2.972 0.247 0 0.496 0 0.743 0 4 0.917 7.716 2.403 11.147 4.459 0.247 0 0.496 0 0.743 0 3.709 0.648 6.929 2.134 9.66 4.459 0.247 0 0.496 0 0.743 0 2.758 0.392 5.483 1.012 8.174 1.858 0.413 0.285 0.661 0.656 0.743 1.115 0.496 0 0.991 0 1.486 0 1.135-0.054 1.878 0.441 2.229 1.486 0.743 0 1.486 0 2.229 0 1.397-0.201 2.388 0.294 2.972 1.486 0.247 0 0.496 0 0.743 0 1.633-0.282 2.872 0.213 3.716 1.486 0.247 0 0.496 0 0.743 0 1.865-0.331 3.351 0.163 4.459 1.486 1.997-0.122 3.979 0.002 5.945 0.372 1.83 0.904 3.811 1.399 5.945 1.486 0.413 0.285 0.661 0.656 0.743 1.115 0.247 0 0.496 0 0.743 0 1.506-0.12 2.992 0.004 4.459 0.372 0.413 0.285 0.661 0.656 0.743 1.115 0.247 0 0.496 0 0.743 0 1.752-0.121 3.485 0.002 5.202 0.372 0.413 0.285 0.661 0.656 0.743 1.115 1.997-0.122 3.979 0.002 5.945 0.372 1.83 0.904 3.811 1.399 5.945 1.486 0.413 0.285 0.661 0.656 0.743 1.115 0.743 0 1.486 0 2.229 0 5.574-0.268 11.024 0.351 16.348 1.858 0.413 0.285 0.661 0.656 0.743 1.115 2.229 0 4.459 0 6.688 0 1.506-0.12 2.992 0.004 4.459 0.372 0.413 0.285 0.661 0.656 0.743 1.115zM543.582 811.007c2.229 0 4.459 0 6.688 0 0.082-0.458 0.33-0.83 0.743-1.115 1.466-0.368 2.952-0.492 4.459-0.372 2.477 0 4.954 0 7.431 0 0.082-0.458 0.33-0.83 0.743-1.115 1.717-0.369 3.45-0.493 5.202-0.372 0.247 0 0.496 0 0.743 0 0.082-0.458 0.33-0.83 0.743-1.115 2.962-0.371 5.934-0.495 8.917-0.372 0.743 0 1.486 0 2.229 0 0.082-0.458 0.33-0.83 0.743-1.115 1.466-0.368 2.952-0.492 4.459-0.372 0.496 0 0.991 0 1.486 0 1.107-1.323 2.593-1.818 4.459-1.486 1.497-1.058 3.231-1.553 5.202-1.486 0.743 0 1.486 0 2.229 0 0.951-1.063 2.19-1.559 3.716-1.486 0.991 0 1.982 0 2.972 0 1.107-1.323 2.593-1.818 4.459-1.486 0.247 0 0.496 0 0.743 0 1.44-1.236 3.175-1.731 5.202-1.486 0.247 0 0.496 0 0.743 0 1.44-1.236 3.175-1.731 5.202-1.486 0.247 0 0.496 0 0.743 0 1.735-1.98 3.964-2.971 6.688-2.972 0.496 0 0.991 0 1.486 0 1.19-1.17 2.677-1.665 4.459-1.486 0.247 0 0.496 0 0.743 0 0.843-1.273 2.082-1.769 3.716-1.486 2.644-1.809 5.616-2.8 8.917-2.972 2.252-1.414 4.728-2.405 7.431-2.972 0.585-1.192 1.575-1.688 2.972-1.486 0.247 0 0.496 0 0.743 0 0.951-1.063 2.19-1.559 3.716-1.486 0.247 0 0.496 0 0.743 0 1.737-1.409 3.719-2.4 5.945-2.972 0.247 0 0.496 0 0.743 0 0.351-1.045 1.095-1.54 2.229-1.486 0.754-0.872 1.744-1.367 2.972-1.486 0.87-0.628 1.861-1.123 2.972-1.486 1.274-0.92 2.76-1.416 4.459-1.486 1.861-1.123 3.843-2.114 5.945-2.972 0.247 0 0.496 0 0.743 0 5.836-3.786 12.029-7.006 18.578-9.66 2.011-2.245 4.488-3.731 7.431-4.459 0.508-1.245 1.499-1.741 2.972-1.486 1.252-1.206 2.738-2.197 4.459-2.972 0.247 0 0.496 0 0.743 0 1.672-2.295 3.901-3.782 6.688-4.459 1.14-1.389 2.626-2.379 4.459-2.972 1.224-1.357 2.71-2.348 4.459-2.972 0.325-1.17 1.068-2.037 2.229-2.601 1.902-1.32 3.886-2.435 5.945-3.344 0.743-0.496 1.486-0.991 2.229-1.486 2.638-3.267 5.856-5.744 9.66-7.431 0.245-0.743 0.743-1.239 1.486-1.486 5.744-4.372 11.191-9.203 16.348-14.491 1.278-1.159 2.764-1.778 4.459-1.858 1.731-3.22 4.213-5.697 7.431-7.431 0.988-0.991 1.984-1.982 2.972-2.972 0.773-1.899 2.014-3.51 3.716-4.83 1.672-1.023 3.285-2.138 4.83-3.344 1.055-3.164 3.166-5.145 6.316-5.945 0.208-0.95 0.706-1.693 1.486-2.229 6.205-7.193 12.395-14.376 18.578-21.55 1.724-2.709 3.701-5.187 5.945-7.431 0.245 0 0.498 0 0.743 0 2.148-4.375 4.875-8.339 8.174-11.89 0.245-0.743 0.743-1.239 1.486-1.486 1.464-3.422 3.322-6.642 5.573-9.66 1.018-1.145 2.133-2.136 3.344-2.972 0-0.247 0-0.496 0-0.743 1.115-2.729 2.601-5.206 4.459-7.431 0-0.991 0.498-1.486 1.486-1.486-0.052-1.135 0.438-1.878 1.486-2.229 0-0.247 0-0.496 0-0.743 0.736-1.524 1.724-2.763 2.972-3.716-0.253-1.474 0.238-2.465 1.486-2.972-0.201-1.397 0.297-2.388 1.486-2.972-0.201-1.397 0.297-2.388 1.486-2.972 0-0.247 0-0.496 0-0.743 0.817-1.404 1.813-2.642 2.972-3.716 1.040-4.486 3.017-8.45 5.945-11.89-0.201-1.397 0.297-2.388 1.486-2.972 0.825-3.359 2.311-6.331 4.459-8.917-0.201-1.397 0.297-2.388 1.486-2.972-0.201-1.397 0.297-2.388 1.486-2.972 0-0.496 0-0.991 0-1.486 2.118-3.983 3.723-8.193 4.83-12.633 0.55-1.352 1.419-2.342 2.601-2.972 0-0.247 0-0.496 0-0.743-0.282-1.633 0.216-2.872 1.486-3.716 0-0.247 0-0.496 0-0.743-0.052-1.135 0.438-1.878 1.486-2.229 0-0.247 0-0.496 0-0.743-0.312-1.695 0.178-2.934 1.486-3.716 0.921-3.091 1.538-6.311 1.858-9.66 0.669-1.435 1.538-2.673 2.601-3.716-0.245-2.027 0.253-3.762 1.486-5.202 0.528-4.439 1.769-8.65 3.716-12.633 0-0.496 0-0.991 0-1.486 0.282-1.633 0.773-3.12 1.486-4.459 0-0.496 0-0.991 0-1.486 0.223-1.414 0.713-2.653 1.486-3.716-0.067-2.376 0.424-4.605 1.486-6.688 0-0.496 0-0.991 0-1.486s0-0.991 0-1.486c0.431-2.066 0.929-4.048 1.486-5.945 0.409-4.911 1.397-9.617 2.972-14.119-0.32-2.509 0.171-4.739 1.486-6.688 0-1.239 0-2.477 0-3.716 0-0.247 0-0.496 0-0.743-0.282-2.964 0.208-5.688 1.486-8.174 0-1.982 0-3.963 0-5.945-0.208-2.474 0.282-4.703 1.486-6.688 0-3.22 0-6.44 0-9.66 0.936-17.834 0.936-35.668 0-53.504 0-0.247 0-0.496 0-0.743 0-2.477 0-4.954 0-7.431-0.535-0.311-0.907-0.806-1.115-1.486-0.372-2.216-0.49-4.445-0.372-6.688 0-1.239 0-2.477 0-3.716-0.572-0.567-0.944-1.31-1.115-2.229-0.372-2.962-0.498-5.934-0.372-8.917 0-0.496 0-0.991 0-1.486 0-0.247 0-0.496 0-0.743-2.192-4.873-3.18-10.074-2.972-15.605 0-0.991 0-1.982 0-2.972-1.063-0.951-1.561-2.19-1.486-3.716-0.765-1.829-1.263-3.81-1.486-5.945 0-0.247 0-0.496 0-0.743 0-0.743 0-1.486 0-2.229-1.063-0.951-1.561-2.19-1.486-3.716 0-0.743 0-1.486 0-2.229-0.921-1.274-1.419-2.76-1.486-4.459 0-0.247 0-0.496 0-0.743 0-0.496 0-0.991 0-1.486-1.063-0.951-1.561-2.19-1.486-3.716-0.609-2.2-1.107-4.43-1.486-6.688-1.917-1.743-2.66-3.972-2.229-6.688-0.624-0.254-0.869-0.749-0.743-1.486-0.713-1.312-0.959-2.798-0.743-4.459-1.167-1.19-1.665-2.677-1.486-4.459-2.044-2.57-3.039-5.542-2.972-8.917-1.315-1.452-2.304-3.186-2.972-5.202 0-0.247 0-0.496 0-0.743-0.461-0.082-0.832-0.33-1.115-0.743-0.372-1.717-0.49-3.45-0.372-5.202-1.248-0.508-1.739-1.499-1.486-2.972-1.063-1.043-1.932-2.281-2.601-3.716-0.364-0.961-0.49-1.952-0.372-2.972 0-0.247 0-0.496 0-0.743-1.152-0.239-1.642-0.982-1.486-2.229 0-0.247 0-0.496 0-0.743-1.152-0.239-1.642-0.982-1.486-2.229 0-0.247 0-0.496 0-0.743-1.271-0.843-1.769-2.082-1.486-3.716 0-0.247 0-0.496 0-0.743-1.167-0.325-2.036-1.068-2.601-2.229-0.498-2.051-1.122-4.033-1.858-5.945 0-0.245 0-0.498 0-0.743-1.152-0.238-1.642-0.981-1.486-2.229-1.189-0.587-1.687-1.575-1.486-2.972-1.189-0.587-1.687-1.575-1.486-2.972-1.189-0.587-1.687-1.575-1.486-2.972-1.189-0.587-1.687-1.575-1.486-2.972-1.189-0.587-1.687-1.575-1.486-2.972-1.36-1.226-2.348-2.712-2.972-4.459-0.743-0.245-1.241-0.743-1.486-1.486-0.245 0-0.498 0-0.743 0-0.238 1.152-0.981 1.642-2.229 1.486-1.226 1.36-2.712 2.348-4.459 2.972-0.245 0-0.498 0-0.743 0-0.349 1.048-1.092 1.538-2.229 1.486-0.721 0.973-1.709 1.464-2.972 1.486-1.226 1.36-2.712 2.348-4.459 2.972-0.498 0-0.988 0-1.486 0 0 0.988-0.498 1.486-1.486 1.486-0.245 0-0.498 0-0.743 0-0.349 1.048-1.092 1.538-2.229 1.486-1.352 1.122-2.839 2.11-4.459 2.972-0.498 0-0.988 0-1.486 0-0.245 0.743-0.743 1.241-1.486 1.486-0.245 0-0.498 0-0.743 0-0.349 1.048-1.092 1.538-2.229 1.486-0.245 0-0.498 0-0.743 0-0.349 1.048-1.092 1.538-2.229 1.486-0.245 0-0.498 0-0.743 0-0.349 1.048-1.092 1.538-2.229 1.486-1.226 1.36-2.712 2.348-4.459 2.972-0.245 0-0.498 0-0.743 0-0.349 1.045-1.092 1.54-2.229 1.486-0.245 0-0.498 0-0.743 0-0.349 1.045-1.092 1.54-2.229 1.486-0.587 1.192-1.575 1.688-2.972 1.486-1.352 1.122-2.839 2.113-4.459 2.972-0.245 0-0.498 0-0.743 0-0.349 1.045-1.092 1.54-2.229 1.486-1.546 1.763-3.53 2.754-5.945 2.972-0.944 1.15-2.177 1.893-3.716 2.229-1.040 1.033-2.281 1.776-3.716 2.229-4.087 2.663-8.3 5.14-12.633 7.431-1.984 0.991-3.961 1.982-5.945 2.972 0.84 2.527 1.835 5.004 2.972 7.431 1.189 0.585 1.687 1.575 1.486 2.972 0.624 0.254 0.869 0.749 0.743 1.486 0.624 0.254 0.869 0.749 0.743 1.486 0.869 0.754 1.367 1.744 1.486 2.972 1.189 0.585 1.687 1.575 1.486 2.972 0 0.247 0 0.496 0 0.743 1.048 0.351 1.538 1.095 1.486 2.229 0 0.247 0 0.496 0 0.743 1.048 0.351 1.538 1.095 1.486 2.229 0.869 0.754 1.367 1.744 1.486 2.972 1.070 1.552 1.568 3.285 1.486 5.202 1.063 1.043 1.932 2.281 2.601 3.716 0.364 0.961 0.49 1.952 0.372 2.972 1.419 3.185 2.906 6.405 4.459 9.66 0 0.743 0 1.486 0 2.229 0.669 0.587 1.167 1.33 1.486 2.229 0 0.991 0 1.982 0 2.972 1.189 0.585 1.687 1.575 1.486 2.972 0 0.496 0 0.991 0 1.486 0.869 0.754 1.367 1.744 1.486 2.972 0 0.743 0 1.486 0 2.229 0.773 1.063 1.263 2.301 1.486 3.716 0 0.247 0 0.496 0 0.743 1.546 2.979 2.534 6.199 2.972 9.66 0 1.239 0 2.477 0 3.716 0.669 0.527 0.921 1.27 0.743 2.229 0.669 0.527 0.921 1.27 0.743 2.229 0.624 2.114 1.122 4.343 1.486 6.688 0 0.496 0 0.991 0 1.486 1.575 6.753 2.571 13.688 2.972 20.807 0 0.743 0 1.486 0 2.229 0.446 3.909 1.063 7.872 1.858 11.89 0.498 12.88 0.498 25.761 0 38.642-0.825 3.472-1.442 6.94-1.858 10.403 0 0.743 0 1.486 0 2.229-0.126 4.112-0.624 8.075-1.486 11.89-0.030 3.146-0.528 6.118-1.486 8.917 0 0.496 0 0.991 0 1.486-0.052 2.176-0.542 4.158-1.486 5.945-0.275 3.265-0.773 6.485-1.486 9.66-0.32 1.865-0.81 3.599-1.486 5.202-0.067 1.699-0.565 3.185-1.486 4.459 0.178 1.782-0.32 3.268-1.486 4.459 0 0.496 0 0.991 0 1.486 0.074 1.526-0.424 2.764-1.486 3.716 0 0.496 0 0.991 0 1.486 0.074 1.526-0.424 2.764-1.486 3.716 0 0.247 0 0.496 0 0.743-0.067 1.699-0.565 3.185-1.486 4.459-0.223 1.414-0.713 2.653-1.486 3.716 0 0.247 0 0.496 0 0.743-0.119 1.228-0.617 2.219-1.486 2.972 0.282 1.633-0.216 2.872-1.486 3.716 0 0.247 0 0.496 0 0.743-0.119 1.228-0.617 2.219-1.486 2.972 0 0.496 0 0.991 0 1.486-0.245 0.743-0.743 1.239-1.486 1.486 0 0.496 0 0.991 0 1.486-0.119 1.228-0.617 2.219-1.486 2.972-0.216 2.418-1.211 4.4-2.972 5.945-0.416 2.559-1.404 4.788-2.972 6.688-0.498 1.239-0.988 2.477-1.486 3.716 0.052 1.135-0.438 1.878-1.486 2.229 0 0.247 0 0.496 0 0.743-0.624 1.749-1.613 3.235-2.972 4.459 0.201 1.397-0.297 2.388-1.486 2.972 0.052 1.135-0.438 1.878-1.486 2.229 0 0.247 0 0.496 0 0.743 0.052 1.135-0.438 1.878-1.486 2.229 0 0.247 0 0.496 0 0.743-1.085 3.418-3.069 6.143-5.945 8.174 0 0.247 0 0.496 0 0.743 0.052 1.135-0.438 1.878-1.486 2.229 0 0.247 0 0.496 0 0.743-0.817 1.404-1.813 2.642-2.972 3.716 0 0.247 0 0.496 0 0.743-0.973 2.209-2.46 3.944-4.459 5.202 0 0.247 0 0.496 0 0.743-0.817 1.404-1.813 2.642-2.972 3.716 0 0.247 0 0.496 0 0.743-0.951 2.19-2.437 3.924-4.459 5.202-0.245 0.743-0.743 1.239-1.486 1.486 0 0.991-0.498 1.486-1.486 1.486-0.594 1.832-1.583 3.319-2.972 4.459 0 0.991-0.496 1.486-1.486 1.486 0 0.991-0.496 1.486-1.486 1.486 0 0.991-0.496 1.486-1.486 1.486-0.624 1.749-1.616 3.235-2.972 4.459 0 0.991-0.496 1.486-1.486 1.486 0 0.991-0.496 1.486-1.486 1.486-0.247 0-0.496 0-0.743 0-0.177 1.415-0.92 2.406-2.229 2.972 0 0.991-0.496 1.486-1.486 1.486-0.019 1.991-1.009 2.981-2.972 2.972-2.952 3.695-6.172 7.164-9.66 10.403-0.247 0-0.496 0-0.743 0-2.276 3.021-5 5.498-8.174 7.431-0.743 0.496-1.486 0.991-2.229 1.486-2.261 3.005-4.985 5.482-8.174 7.431-0.496 0-0.991 0-1.486 0-0.614 1.311-1.604 2.302-2.972 2.972 0.064 0.74-0.184 1.359-0.743 1.858-1.773 0.887-3.507 1.754-5.202 2.601-0.743 0.496-1.486 0.991-2.229 1.486-1.074 1.161-2.312 2.152-3.716 2.972-0.247 0-0.496 0-0.743 0-0.802 1.518-2.041 2.509-3.716 2.972-1.249 1.121-2.735 1.864-4.459 2.229-1.089 0.919-2.327 1.662-3.716 2.229-0.67 1.655-1.908 2.398-3.716 2.229-0.528 1.264-1.52 2.007-2.972 2.229-4.231 2.611-8.689 4.84-13.376 6.688-0.508 1.245-1.499 1.741-2.972 1.486-0.508 1.245-1.499 1.741-2.972 1.486-0.754 0.872-1.744 1.367-2.972 1.486-1.107 1.323-2.593 1.818-4.459 1.486-0.508 1.245-1.499 1.741-2.972 1.486-0.239 1.15-0.982 1.646-2.229 1.486-0.247 0-0.496 0-0.743 0-0.239 1.15-0.982 1.646-2.229 1.486-0.247 0-0.496 0-0.743 0-0.843 1.273-2.082 1.769-3.716 1.486-0.247 0-0.496 0-0.743 0-0.351 1.045-1.095 1.54-2.229 1.486-0.743 0-1.486 0-2.229 0-0.351 1.045-1.095 1.54-2.229 1.486-0.247 0-0.496 0-0.743 0-0.843 1.273-2.082 1.769-3.716 1.486-0.247 0-0.496 0-0.743 0-2.142 2.345-4.867 3.337-8.174 2.972-0.247 0-0.496 0-0.743 0-0.843 1.273-2.082 1.769-3.716 1.486-0.496 0-0.991 0-1.486 0-1.107 1.323-2.593 1.818-4.459 1.486-0.247 0-0.496 0-0.743 0-0.082 0.458-0.33 0.83-0.743 1.115-1.466 0.368-2.952 0.492-4.459 0.372-0.247 0-0.496 0-0.743 0-0.082 0.458-0.33 0.83-0.743 1.115-1.466 0.368-2.952 0.492-4.459 0.372-0.743 0-1.486 0-2.229 0-3.215 2.469-6.93 3.46-11.147 2.972-0.991 0-1.982 0-2.972 0-1.107 1.323-2.593 1.818-4.459 1.486-1.486 0-2.972 0-4.459 0-0.311 0.537-0.806 0.908-1.486 1.115-2.465 0.37-4.942 0.494-7.431 0.372-0.991 0-1.982 0-2.972 0-0.951 1.063-2.19 1.559-3.716 1.486 0 4.459 0 8.917 0 13.376 0 0.247 0 0.496 0 0.743 0.458 0.082 0.83 0.33 1.115 0.743 0.84 13.863 1.459 27.735 1.858 41.614 0 1.239 0 2.477 0 3.716 0.982 7.783 1.477 15.71 1.486 23.779 0 0.247 0 0.496 0 0.743 0 0.743 0 1.486 0 2.229 0.537 0.311 0.908 0.806 1.115 1.486 0.372 7.922 0.496 15.849 0.372 23.779zM273.835 201.66c0-0.245 0-0.498 0-0.743 1.518-2.259 3.5-3.998 5.945-5.202 0-0.245 0-0.498 0-0.743 0.991-2.222 2.477-3.961 4.459-5.202 1.718-2.214 3.7-4.199 5.945-5.945 0-0.988 0.496-1.486 1.486-1.486 0.247-1.731 1.239-2.727 2.972-2.972 0-0.988 0.496-1.486 1.486-1.486s1.486-0.498 1.486-1.486c0-0.988 0.496-1.486 1.486-1.486 0-0.988 0.496-1.486 1.486-1.486 0-0.988 0.496-1.486 1.486-1.486 0-0.988 0.496-1.486 1.486-1.486 0.247 0 0.496 0 0.743 0 1.74-1.605 3.226-3.463 4.459-5.573 1.776-1.13 3.51-2.244 5.202-3.344 0.821-0.817 1.812-1.315 2.972-1.486 1.239-2.727 3.22-4.704 5.945-5.945 0.247 0 0.496 0 0.743 0 0.351-1.048 1.095-1.538 2.229-1.486 0-0.988 0.496-1.486 1.486-1.486 1.444-2.207 3.425-3.693 5.945-4.459 0.953-1.248 2.191-2.237 3.716-2.972 0.496 0 0.991 0 1.486 0 0.859-1.404 2.098-2.393 3.716-2.972 0.806-1.553 2.044-2.541 3.716-2.972 1.329-1.025 2.816-1.769 4.459-2.229 1.040-1.033 2.278-1.776 3.716-2.229 0.802-1.516 2.041-2.512 3.716-2.972 0.247 0 0.496 0 0.743 0 0.351-1.048 1.095-1.538 2.229-1.486 0.247 0 0.496 0 0.743 0 0.351-1.048 1.095-1.538 2.229-1.486 0.247 0 0.496 0 0.743 0 0.587-0.669 1.33-1.167 2.229-1.486 0.247 0 0.496 0 0.743 0 0.351-1.048 1.095-1.538 2.229-1.486 0.247 0 0.496 0 0.743 0 3.143-2.935 6.858-4.919 11.147-5.945 1.636-0.795 3.37-1.286 5.202-1.486 0.351-1.048 1.095-1.538 2.229-1.486 0.247 0 0.496 0 0.743 0 0.337-0.713 0.832-1.33 1.486-1.858 2.59-1.204 5.315-2.073 8.174-2.601 1.636-0.795 3.37-1.286 5.202-1.486 1.063-0.773 2.301-1.263 3.716-1.486 0.247 0 0.496 0 0.743 0 1.063-0.773 2.301-1.263 3.716-1.486 0.496 0 0.991 0 1.486 0 0.69-0.602 1.433-1.226 2.229-1.858 5.206-1.509 10.408-2.868 15.605-4.087 0.991 0 1.982 0 2.972 0 0.87-0.624 1.861-1.122 2.972-1.486 0.743 0 1.486 0 2.229 0 9.049-3.24 18.462-4.971 28.238-5.202 0.247 0 0.496 0 0.743 0 0.567-0.572 1.31-0.944 2.229-1.115 3.459-0.372 6.926-0.498 10.403-0.372 2.229 0 4.459 0 6.688 0 0.567-0.572 1.31-0.944 2.229-1.115 12.633-0.498 25.266-0.498 37.898 0 0.919 0.171 1.662 0.542 2.229 1.115 1.486 0 2.972 0 4.459 0 4.218-0.126 8.429 0 12.633 0.372 0.919 0.171 1.662 0.542 2.229 1.115 6.281-0.156 12.474 0.461 18.578 1.858 1.245 0.736 2.483 1.352 3.716 1.858 0.737-0.126 1.232 0.119 1.486 0.743 1.661-0.216 3.147 0.030 4.459 0.743 6.613 1.182 13.053 2.668 19.321 4.459 2.65 0.216 4.879 1.211 6.688 2.972 0.743 0 1.486 0 2.229 0 0.899 0.32 1.642 0.817 2.229 1.486 0.743 0 1.486 0 2.229 0 0.899 0.32 1.642 0.817 2.229 1.486 0.743 0 1.486 0 2.229 0 1.111 0.364 2.102 0.862 2.972 1.486 0.496 0 0.991 0 1.486 0 3.085 0.921 5.809 2.408 8.174 4.459 2.567 0.765 5.044 1.754 7.431 2.972 2.559 0.416 4.788 1.404 6.688 2.972 0.247 0 0.496 0 0.743 0s0.496 0 0.743 0c1.404 0.817 2.642 1.813 3.716 2.972 1.228 0.119 2.219 0.617 2.972 1.486 0.737-0.126 1.232 0.119 1.486 0.743 0.496 0.245 0.991 0.498 1.486 0.743 2.418 0.216 4.4 1.211 5.945 2.972 1.692 0.706 3.178 1.694 4.459 2.972 1.228 0.119 2.219 0.617 2.972 1.486 0.991 0 1.486 0.498 1.486 1.486 0.496 0 0.991 0 1.486 0 3.588 0.617 6.065 2.601 7.431 5.945 0.737-0.126 1.232 0.119 1.486 0.743 1.672 0.468 3.158 1.211 4.459 2.229 2.196 1.204 4.178 2.69 5.945 4.459 1.404 0.817 2.642 1.813 3.716 2.972 1.135-0.052 1.878 0.438 2.229 1.486 2.52 0.765 4.501 2.252 5.945 4.459 0.496 0.498 0.991 0.988 1.486 1.486 2.741 1.62 5.217 3.604 7.431 5.945 1.239 1.731 2.725 3.218 4.459 4.459 2.972 0.988 4.954 2.972 5.945 5.945 0.623 0.253 0.871 0.751 0.743 1.486 3.46 1.219 5.937 3.448 7.431 6.688 1.613 1.486 3.347 2.846 5.202 4.087 1.219 0.84 1.963 1.954 2.229 3.344 0.781 0.535 1.277 1.278 1.486 2.229 3.042 2.296 5.52 5.023 7.431 8.174 0.498 0.743 0.988 1.486 1.486 2.229 0.892 1.219 1.887 1.464 2.972 0.743 0.498 0 0.988 0 1.486 0 1.783-2.527 4.013-4.511 6.688-5.945 1.717-1.464 3.448-2.95 5.202-4.459 1.241-0.988 2.475-1.984 3.716-2.972 1.523-1.523 3.255-2.757 5.202-3.716 0.245-0.743 0.743-1.241 1.486-1.486 0.253-0.624 0.751-0.869 1.486-0.743 1.538-2.281 3.522-4.020 5.945-5.202 1.947-1.471 3.931-2.958 5.945-4.459 0-0.988 0.498-1.486 1.486-1.486 1.39-2.192 3.374-3.678 5.945-4.459 0.349-1.048 1.092-1.538 2.229-1.486 0.973-2.348 2.712-3.834 5.202-4.459 0.617-1.308 1.605-2.304 2.972-2.972 0.245 0 0.498 0 0.743 0 0.349-1.048 1.092-1.538 2.229-1.486 0.245-1.731 1.241-2.727 2.972-2.972 0-0.988 0.498-1.486 1.486-1.486 1.137-1.39 2.623-2.378 4.459-2.972 0-0.988 0.498-1.486 1.486-1.486 0.498 0 0.988 0 1.486 0 0-0.498 0-0.988 0-1.486 1.442-2.207 3.426-3.693 5.945-4.459 0-0.988 0.498-1.486 1.486-1.486 0.498 0 0.988 0 1.486 0 0.951-1.709 1.94-3.441 2.972-5.202-1.033-1.761-2.021-3.493-2.972-5.202-4.161-3.374-7.632-7.342-10.403-11.89-1.427-0.676-2.66-1.665-3.716-2.972-3.247-3.99-6.472-7.951-9.66-11.89-4.704-3.218-8.672-7.186-11.89-11.89-4.102-2.118-7.572-5.090-10.403-8.917-5.031-3.664-9.987-7.498-14.862-11.518-0.981-0.609-1.479-1.471-1.486-2.601-0.498 0-0.988 0-1.486 0-2.712-1.724-5.187-3.701-7.431-5.945-1.404-0.817-2.645-1.813-3.716-2.972-0.245 0-0.498 0-0.743 0-3.619-1.954-6.837-4.429-9.66-7.431-0.743-0.245-1.239-0.743-1.486-1.486-1.565-0.951-3.299-1.575-5.202-1.858-1.161-0.565-1.905-1.434-2.229-2.601-1.749-0.624-3.235-1.613-4.459-2.972-0.991 0-1.486-0.498-1.486-1.486-1.020 0.119-2.012-0.007-2.972-0.372-2.841-1.531-5.318-3.389-7.431-5.573-1.135 0.052-1.878-0.438-2.229-1.486-0.247 0-0.496 0-0.743 0-4.472-2.029-8.931-4.132-13.376-6.316-0.899-0.773-1.642-1.642-2.229-2.601-0.247 0-0.496 0-0.743 0-2.016-0.669-3.75-1.657-5.202-2.972-0.247 0-0.496 0-0.743 0-3.077-0.736-6.050-1.85-8.917-3.344-1.161-0.565-1.905-1.434-2.229-2.601-0.247 0-0.496 0-0.743 0-1.248 0.156-1.991-0.334-2.229-1.486-1.263 0.119-2.501-0.007-3.716-0.372-1.558-0.55-2.796-1.412-3.716-2.601-4.012-0.372-7.48-1.858-10.403-4.459-6.918-1.583-13.606-3.812-20.064-6.688-0.496 0-0.743-0.245-0.743-0.743-1.576 0.126-3.062-0.119-4.459-0.743-3.163-0.602-6.136-1.59-8.917-2.972-1.699-0.067-3.185-0.565-4.459-1.486-2.226 0.156-4.207-0.342-5.945-1.486-1.782 0.178-3.268-0.32-4.459-1.486-0.496 0-0.991 0-1.486 0-1.633-0.282-3.12-0.773-4.459-1.486-0.496 0-0.991 0-1.486 0-1.699-0.067-3.185-0.565-4.459-1.486-0.496 0-0.991 0-1.486 0-3.899-0.825-7.862-1.442-11.89-1.858-0.681-0.208-1.176-0.58-1.486-1.115-0.247 0-0.496 0-0.743 0-6.055 0.513-11.752-0.476-17.091-2.972-0.743 0-1.486 0-2.229 0-7.687-0.736-15.366-1.605-23.036-2.601-22.789-0.498-45.577-0.498-68.366 0-7.429 0.929-14.86 1.798-22.293 2.601-0.247 0-0.496 0-0.743 0-0.743 0-1.486 0-2.229 0-5.062 2.534-10.512 3.53-16.348 2.972-0.247 0-0.496 0-0.743 0-1.985 1.204-4.214 1.694-6.688 1.486-0.247 0-0.496 0-0.743 0-1.949 1.315-4.178 1.806-6.688 1.486-1.787 0.944-3.769 1.434-5.945 1.486-1.274 0.921-2.76 1.419-4.459 1.486-0.496 0-0.991 0-1.486 0-1.19 1.167-2.677 1.665-4.459 1.486-0.247 0-0.496 0-0.743 0-6.322 2.2-12.761 4.184-19.321 5.945-0.247 0-0.496 0-0.743 0-9.019 3.559-18.185 6.777-27.495 9.66-0.798 1.025-1.789 1.895-2.972 2.601-2.561 0.49-5.038 1.107-7.431 1.858-1.815 1.211-3.797 2.2-5.945 2.972-0.247 0-0.496 0-0.743 0-4.693 3.47-9.894 5.945-15.605 7.431-2.906 2.43-6.125 4.414-9.66 5.945-0.247 0-0.496 0-0.743 0-0.585 1.189-1.575 1.687-2.972 1.486-0.351 1.048-1.095 1.538-2.229 1.486-0.496 0-0.991 0-1.486 0-1.414 2.2-3.396 3.686-5.945 4.459-2.038 2.17-4.514 3.656-7.431 4.459-0.247 0-0.496 0-0.743 0-0.836 1.211-1.827 2.326-2.972 3.344-3.264 1.88-6.484 3.738-9.66 5.573-0.247 0-0.496 0-0.743 0-2.304 2.549-5.029 4.533-8.174 5.945-1.224 1.36-2.71 2.348-4.459 2.972-3.131 4.050-7.094 7.022-11.89 8.917-0.267 1.39-1.010 2.504-2.229 3.344-2.836 1.724-5.56 3.582-8.174 5.573-0.496 0.498-0.991 0.988-1.486 1.486-3.477 3.478-7.193 6.695-11.147 9.66-0.743 1.241-1.734 2.229-2.972 2.972-0.537 0.78-1.28 1.278-2.229 1.486-4.439 5.187-9.146 10.136-14.119 14.862-0.743 1.241-1.734 2.229-2.972 2.972-0.743 1.241-1.734 2.229-2.972 2.972-0.247 0.743-0.743 1.241-1.486 1.486-2.443 3.931-5.415 7.394-8.917 10.403-0.247 0.743-0.743 1.241-1.486 1.486-1.765 2.274-3.251 4.748-4.459 7.431 1.256 1.501 2.494 2.987 3.716 4.459 1.26 0.988 2.498 1.984 3.716 2.972 2.493 0.624 4.227 2.11 5.202 4.459 0.743 0.498 1.486 0.988 2.229 1.486 2.187 1.196 4.169 2.683 5.945 4.459 1.239 0.743 2.229 1.731 2.972 2.972 1.404 0.817 2.642 1.813 3.716 2.972 1.457 0.713 2.695 1.702 3.716 2.972 2.209 0.973 3.944 2.46 5.202 4.459 0.95 0.208 1.693 0.706 2.229 1.486 2.301 0.869 4.036 2.356 5.202 4.459 1.486 0.498 2.477 1.486 2.972 2.972 2.171 1.182 4.4 2.296 6.688 3.344 2.175 2.051 4.157 4.154 5.945 6.316 0.496 0 0.743 0.245 0.743 0.743 3.371 1.382 6.096 3.611 8.174 6.688 0.496 0 0.743 0.245 0.743 0.743 2.892 1.159 5.369 2.898 7.431 5.202 0.781 0.535 1.277 1.278 1.486 2.229 2.12 0.513 3.978 1.501 5.573 2.972 0.91-0.268 1.777-0.639 2.601-1.115 0.411-1.397 1.154-2.512 2.229-3.344z" />
<glyph unicode="&#xe901;" d="M475.959 935.106c1.019-8.82 2.009-17.738 2.972-26.752 0.525-16.595 1.020-33.191 1.486-49.788-0.991 8.174-1.982 16.348-2.972 24.522 0 4.459 0 8.917 0 13.376 0.456 4.288-0.040 8.252-1.486 11.89 0 4.706 0 9.413 0 14.119 0 4.211 0 8.422 0 12.633z" />
<glyph unicode="&#xe902;" d="M477.446 883.089c0.991-8.174 1.982-16.348 2.972-24.522 0-4.706 0-9.413 0-14.119-10.901-0.961-21.553-2.447-31.954-4.459-2.477 0-4.954 0-7.431 0 0.629 1.089 1.62 1.709 2.972 1.858 11.515 2.033 23.157 3.396 34.926 4.087-1.229 12.308-1.725 24.693-1.486 37.155z" />
<glyph unicode="&#xe903;" d="M549.527 899.437c-1.317-18.306-2.307-36.637-2.972-54.99 6.815 0.405 13.503-0.214 20.064-1.858 1.549-0.518 2.787-1.385 3.716-2.601-1.239 0-2.477 0-3.716 0-4.142 1.451-8.601 1.947-13.376 1.486-2.366 1.422-5.091 1.917-8.174 1.486 0.354 9.669 0.85 19.33 1.486 28.981-0.411 4.676 0.085 9.134 1.486 13.376-0.463 5.019 0.033 9.726 1.486 14.119z" />
<glyph unicode="&#xe904;" d="M545.811 885.318c-0.24-4.6 0.007-9.058 0.743-13.376-0.636-9.651-1.132-19.312-1.486-28.981 3.083 0.431 5.808-0.064 8.174-1.486-8.591-2.428-12.058 0.669-10.403 9.289 0.212 5.12 0.955 10.074 2.229 14.862-0.299 4.208-0.548 8.419-0.743 12.633 0.011 2.657 0.507 5.010 1.486 7.060z" />
<glyph unicode="&#xe905;" d="M480.418 858.566c0.496 0 0.991 0 1.486 0 0-5.202 0-10.403 0-15.605-1.891 0.259-3.377-0.36-4.459-1.858-4.343-0.392-8.678-0.268-13.004 0.372-5.269-1.138-10.594-1.634-15.977-1.486 10.401 2.012 21.052 3.498 31.954 4.459 0 4.706 0 9.413 0 14.119z" />
<glyph unicode="&#xe906;" d="M437.318 839.988c-2.725-0.991-5.449-1.982-8.174-2.972-3.322 0.438-6.295-0.057-8.917-1.486-2.376 0.398-4.358-0.097-5.945-1.486-2.845 0.423-5.323-0.073-7.431-1.486-2.376 0.398-4.358-0.097-5.945-1.486-1.332-0.1-2.57 0.148-3.716 0.743 2.233 1.524 4.71 2.639 7.431 3.344 7.134 1.129 14.069 2.615 20.807 4.459 3.956 0.371 7.919 0.495 11.89 0.372z" />
<glyph unicode="&#xe907;" d="M631.269 826.612c4.812-0.198 9.518-0.942 14.119-2.229 0.247 0 0.496 0 0.743 0 0.508-1.245 1.499-1.741 2.972-1.486 0.496 0 0.991 0 1.486 0 2.548-1.841 5.521-2.831 8.917-2.972 3.37-2.047 7.086-3.533 11.147-4.459 0.247 0 0.496 0 0.743 0 0-0.496 0-0.991 0-1.486-1.462 0.178-2.825-0.070-4.087-0.743-3.595 2.611-7.682 3.849-12.261 3.716 0 0.743 0 1.486 0 2.229-6.455 1.572-12.896 3.306-19.321 5.202-1.839 0.345-3.325 1.088-4.459 2.229z" />
<glyph unicode="&#xe908;" d="M361.521 819.181c-4.688-2.232-9.641-4.214-14.862-5.945-1.943-0.571-3.924-0.82-5.945-0.743 0-0.743 0-1.486 0-2.229-4.904-1.14-9.611-2.874-14.119-5.202-1.263 0.977-2.501 0.977-3.716 0 0 0.496 0 0.991 0 1.486 0.247 0 0.496 0 0.743 0 3.763 0.522 6.983 2.008 9.66 4.459 2.905-0.279 5.134 0.711 6.688 2.972 0.496 0 0.991 0 1.486 0 2.64-0.14 4.621 0.851 5.945 2.972 1.919-0.353 3.405 0.143 4.459 1.486 3.227 0.178 6.447 0.426 9.66 0.743z" />
<glyph unicode="&#xe909;" d="M473.73 813.98c0-0.496 0-0.991 0-1.486s0-0.991 0-1.486c-2.477 0-4.954 0-7.431 0-2.146 0.379-3.88-0.116-5.202-1.486-2.229 0-4.459 0-6.688 0-0.247 0-0.496 0-0.743 0-2.431 1.74-5.156 1.989-8.174 0.743 9.176 1.714 18.588 2.952 28.238 3.716z" />
<glyph unicode="&#xe90a;" d="M543.582 812.493c8.564-0.008 16.986-0.504 25.266-1.486-1.919 0.353-3.405-0.143-4.459-1.486-0.496 0-0.991 0-1.486 0-2.477 0-4.954 0-7.431 0-1.322 1.37-3.056 1.865-5.202 1.486-2.229 0-4.459 0-6.688 0 0 0.496 0 0.991 0 1.486z" />
<glyph unicode="&#xe90b;" d="M568.848 811.007c7.877-1.344 15.803-2.583 23.779-3.716 0-0.743 0-1.486 0-2.229-1.486 0-2.972 0-4.459 0-0.496 0-0.991 0-1.486 0-1.322 1.37-3.056 1.865-5.202 1.486-0.743 0-1.486 0-2.229 0-2.878 1.434-6.098 1.93-9.66 1.486-0.247 0-0.496 0-0.743 0-1.054 1.344-2.54 1.839-4.459 1.486 1.054 1.344 2.54 1.839 4.459 1.486z" />
<glyph unicode="&#xe90c;" d="M453.666 809.521c-5.804-0.064-11.253-1.055-16.348-2.972-0.743 0-1.486 0-2.229 0-2.283 0.236-4.512-0.012-6.688-0.743-2.316-0.312-4.297-1.055-5.945-2.229-2.376 0.398-4.358-0.097-5.945-1.486-0.247 0-0.496 0-0.743 0-2.146 0.379-3.88-0.116-5.202-1.486-0.247 0-0.496 0-0.743 0-2.283 0.236-4.512-0.012-6.688-0.743-2.316-0.312-4.297-1.055-5.945-2.229-1.919 0.353-3.405-0.143-4.459-1.486-0.247 0-0.496 0-0.743 0-1.695 0.314-2.934-0.181-3.716-1.486-0.247 0-0.496 0-0.743 0-1.474 0.255-2.465-0.241-2.972-1.486-0.743 0-1.486 0-2.229 0-1.248 0.16-1.991-0.336-2.229-1.486-0.496 0-0.991 0-1.486 0-1.734 0-3.468 0-5.202 0-1.396-0.625-2.883-0.873-4.459-0.743 4.445 2.598 9.4 3.837 14.862 3.716 0 0.743 0 1.486 0 2.229 14.849 3.125 29.463 6.84 43.843 11.147 5.894 1.231 11.839 1.974 17.835 2.229 3.018 1.245 5.743 0.997 8.174-0.743z" />
<glyph unicode="&#xe90d;" d="M671.396 813.98c0.743 0 1.486 0 2.229 0 0.247 0 0.496 0 0.743 0 0.782-1.305 2.021-1.801 3.716-1.486 0.247 0 0.496 0 0.743 0 1.903-2.128 4.38-3.118 7.431-2.972 1.506-1.744 3.488-2.735 5.945-2.972 0.239-1.15 0.982-1.646 2.229-1.486 0.247 0 0.496 0 0.743 0 1.692-1.957 3.921-2.947 6.688-2.972 0.247 0 0.496 0 0.743 0 0.239-1.15 0.982-1.646 2.229-1.486 0.247 0 0.496 0 0.743 0 0.239-1.15 0.982-1.646 2.229-1.486 1.239-0.496 2.477-0.991 3.716-1.486 0.029-0.805 0.277-1.548 0.743-2.229 4.297-1.893 8.26-4.123 11.89-6.688-4.25 0.635-8.214 2.122-11.89 4.459-1.005 0.761-1.501 1.752-1.486 2.972-13.202 5.093-26.33 10.295-39.385 15.605 0 0.743 0 1.486 0 2.229z" />
<glyph unicode="&#xe90e;" d="M592.627 805.062c10.565-1.023 20.968-3.004 31.21-5.945 2.728-0.618 5.205-1.732 7.431-3.344 10.241-1.491 19.901-4.835 28.981-10.032 3.944-1.398 7.907-2.637 11.89-3.716 0-0.743 0-1.486 0-2.229 9.992-2.64 19.405-6.727 28.238-12.261 3.010-0.835 5.983-1.702 8.917-2.601 0.687-2.166 1.925-3.9 3.716-5.202-0.991 0-1.982 0-2.972 0-0.164 0.918-0.66 1.661-1.486 2.229-5.443 3.167-11.141 5.644-17.091 7.431-0.247 0-0.496 0-0.743 0 0 0.743 0 1.486 0 2.229-1.952 0.44-3.934 0.687-5.945 0.743-1.054 1.344-2.54 1.839-4.459 1.486-0.508 1.245-1.499 1.741-2.972 1.486-0.508 1.245-1.499 1.741-2.972 1.486-0.239 1.15-0.982 1.646-2.229 1.486-0.247 0-0.496 0-0.743 0-1.323 2.122-3.305 3.112-5.945 2.972-0.247 0-0.496 0-0.743 0-0.782 1.305-2.021 1.801-3.716 1.486-0.247 0-0.496 0-0.743 0-0.508 1.245-1.499 1.741-2.972 1.486-1.903 2.128-4.38 3.118-7.431 2.972-0.62 1.072-1.611 1.815-2.972 2.229-1.922 0.728-3.904 0.976-5.945 0.743-0.782 1.305-2.021 1.801-3.716 1.486-0.247 0-0.496 0-0.743 0-1.054 1.344-2.54 1.839-4.459 1.486-0.496 0-0.991 0-1.486 0-1.692 1.957-3.921 2.947-6.688 2.972-0.247 0-0.496 0-0.743 0-1.322 1.37-3.056 1.865-5.202 1.486-0.247 0-0.496 0-0.743 0-1.322 1.37-3.056 1.865-5.202 1.486-0.247 0-0.496 0-0.743 0-1.054 1.344-2.54 1.839-4.459 1.486-0.991 0-1.982 0-2.972 0-0.782 1.305-2.021 1.801-3.716 1.486-0.743 0-1.486 0-2.229 0-1.322 1.37-3.056 1.865-5.202 1.486 0 0.496 0 0.991 0 1.486z" />
<glyph unicode="&#xe90f;" d="M285.724 785.742c-5.746-4.494-11.939-8.457-18.578-11.89 0.337 2.046 1.576 3.285 3.716 3.716 0.826 0.568 1.322 1.312 1.486 2.229 0.247 0 0.496 0 0.743 0 1.789 0.521 3.524 1.264 5.202 2.229 0.826 0.568 1.322 1.312 1.486 2.229 1.982 0.496 3.963 0.991 5.945 1.486z" />
<glyph unicode="&#xe910;" d="M350.374 784.255c1.486 0 2.972 0 4.459 0-2.617-1.208-5.094-2.694-7.431-4.459-0.247 0-0.496 0-0.743 0-2.767-0.025-4.996-1.016-6.688-2.972-1.474 0.255-2.465-0.241-2.972-1.486-5.136-1.313-10.091-3.047-14.862-5.202 0.029 0.805 0.277 1.548 0.743 2.229 9.145 4.152 18.31 8.115 27.495 11.89z" />
<glyph unicode="&#xe911;" d="M539.866 783.512c-0.239-3.86 0.010-7.576 0.743-11.147 0-4.459 0-8.917 0-13.376 0-1.239 0-2.477 0-3.716-0.496 0-0.991 0-1.486 0-1.454-4.393-1.949-9.099-1.486-14.119-0.247 0-0.496 0-0.743 0 0.466 14.381 1.456 28.5 2.972 42.357z" />
<glyph unicode="&#xe912;" d="M263.431 773.852c1.239 0 2.477 0 3.716 0-1.635-1.573-3.617-2.812-5.945-3.716-1.097-1.025-1.84-2.264-2.229-3.716-2.972-1.982-5.945-3.963-8.917-5.945-1.64-0.843-3.374-1.338-5.202-1.486 0.496 0.991 0.991 1.982 1.486 2.972 1.098-0.195 2.089 0.053 2.972 0.743 2.972 1.982 5.945 3.963 8.917 5.945 0.466 0.681 0.714 1.425 0.743 2.229 0.537 0.781 1.28 1.277 2.229 1.486 1.248-0.16 1.991 0.336 2.229 1.486z" />
<glyph unicode="&#xe913;" d="M296.871 756.761c-0.62-1.072-1.611-1.815-2.972-2.229-0.466-0.681-0.714-1.425-0.743-2.229-0.247 0-0.496 0-0.743 0-1.248 0.16-1.991-0.336-2.229-1.486-1.648-0.085-3.134-0.58-4.459-1.486-0.126 0.982 0.121 1.85 0.743 2.601 2.969 0.738 5.445 2.224 7.431 4.459 0.961 0.364 1.952 0.488 2.972 0.372z" />
<glyph unicode="&#xe914;" d="M773.202 756.017c1.486 0 2.972 0 4.459 0 1.635-1.642 2.623-3.623 2.972-5.945 1.486 0 2.972 0 4.459 0 0.594-1.665 1.835-2.408 3.716-2.229 1.486-0.991 2.727-2.229 3.716-3.716 0.743-1.486 1.486-2.972 2.229-4.459-1.642 1.636-3.626 2.626-5.945 2.972 0 0.991 0 1.982 0 2.972-1.018-0.117-2.014 0.007-2.972 0.372-1.226 1.856-2.965 2.971-5.202 3.344-1.835 3.082-4.317 5.312-7.431 6.688z" />
<glyph unicode="&#xe915;" d="M792.522 744.128c7.349-4.866 14.037-10.563 20.064-17.091-1.1-0.195-2.088 0.053-2.972 0.743-1.241 1.486-2.475 2.972-3.716 4.459-0.609 0.658-1.352 0.906-2.229 0.743-1.702 2.951-4.176 4.685-7.431 5.202-0.988 0-1.486 0.496-1.486 1.486-0.743 1.486-1.486 2.972-2.229 4.459z" />
<glyph unicode="&#xe916;" d="M272.348 740.412c-1.774-1.147-3.26-2.634-4.459-4.459-0.991 0-1.486-0.496-1.486-1.486-0.247 0-0.496 0-0.743 0-1.354-0.246-2.593-0.742-3.716-1.486-0.059 1.063 0.189 2.054 0.743 2.972 2.506 0.892 4.735 2.255 6.688 4.087 0.961 0.364 1.952 0.488 2.972 0.372z" />
<glyph unicode="&#xe917;" d="M745.707 738.926c2.913 0.277 4.89-0.962 5.945-3.716 1.196-0.608 2.43-1.104 3.716-1.486 0.661-0.613 0.907-1.356 0.743-2.229 3.195 0.036 5.425-1.45 6.688-4.459 2.051-0.272 3.537-1.263 4.459-2.972-1.486 0-2.972 0-4.459 0-0.743 0.247-1.241 0.743-1.486 1.486-0.706 1.213-1.449 2.452-2.229 3.716-2.623 1.178-5.098 2.417-7.431 3.716-0.743 0.496-1.486 0.991-2.229 1.486-0.030 0.805-0.275 1.548-0.743 2.229-1.36 0.414-2.348 1.157-2.972 2.229z" />
<glyph unicode="&#xe918;" d="M803.669 732.981c0.877 0.163 1.62-0.085 2.229-0.743 1.241-1.486 2.475-2.972 3.716-4.459 0.884-0.69 1.873-0.938 2.972-0.743 0.743-0.247 1.241-0.743 1.486-1.486-1.679 0.534-3.418 0.782-5.202 0.743-2.006 1.757-3.738 3.739-5.202 5.945 0 0.247 0 0.496 0 0.743z" />
<glyph unicode="&#xe919;" d="M814.073 723.321c0.988-0.247 1.984-0.496 2.972-0.743 0-0.991 0.498-1.486 1.486-1.486 0.988-1.982 2.475-3.468 4.459-4.459 1.984-2.972 4.459-5.449 7.431-7.431 0-0.991 0.498-1.486 1.486-1.486 0-0.991 0.498-1.486 1.486-1.486 0-0.991 0.498-1.486 1.486-1.486 0-0.991 0.498-1.486 1.486-1.486 0-0.496 0-0.991 0-1.486-1.063-0.059-2.051 0.189-2.972 0.743-5.536 5.892-11.236 11.589-17.091 17.091-0.78 1.264-1.523 2.503-2.229 3.716z" />
<glyph unicode="&#xe91a;" d="M535.408 712.917c-0.239-4.353 0.008-8.564 0.743-12.633 0-0.991 0-1.982 0-2.972 1.734 0 3.468 0 5.202 0 0.991 0 1.982 0 2.972 0 0-0.496 0-0.991 0-1.486-3.468 0-6.935 0-10.403 0-0.47 5.999 0.026 11.696 1.486 17.091z" />
<glyph unicode="&#xe91b;" d="M239.652 715.147c0-0.496 0-0.991 0-1.486-3.342-0.862-5.819-2.843-7.431-5.945-2.33-1.816-4.806-3.302-7.431-4.459-0.496-0.247-0.991-0.496-1.486-0.743 1.034 2.765 3.016 4.499 5.945 5.202 2.118 1.993 4.099 4.099 5.945 6.316 1.371 0.838 2.857 1.21 4.459 1.115z" />
<glyph unicode="&#xe91c;" d="M196.552 721.091c1.239 0 2.477 0 3.716 0-1.7-0.427-3.311-1.17-4.83-2.229 0.14-2.773-0.975-4.879-3.344-6.316-2.163-0.245-4.021-1.112-5.573-2.601-0.33-2.252-1.197-4.234-2.601-5.945-2.243-1.752-4.473-3.486-6.688-5.202 1.154 2.892 3.136 5.121 5.945 6.688 1.104 1.339 1.847 2.825 2.229 4.459 0.731 1.471 1.722 2.71 2.972 3.716 3.14 0.415 5.121 2.148 5.945 5.202 0.496 0.991 1.239 1.734 2.229 2.229z" />
<glyph unicode="&#xe91d;" d="M794.009 697.312c2.356-2.047 5.083-3.533 8.174-4.459 1.553-1.668 2.541-3.65 2.972-5.945 0.684-0.466 1.427-0.714 2.229-0.743 0-0.991 0.498-1.486 1.486-1.486 0-0.496 0-0.991 0-1.486-3.151 0.8-5.261 2.781-6.316 5.945-1.546 1.206-3.158 2.321-4.83 3.344-1.702 1.32-2.943 2.931-3.716 4.83z" />
<glyph unicode="&#xe91e;" d="M472.987 697.312c1.239 0 2.477 0 3.716 0s2.477 0 3.716 0c0.082-0.458 0.33-0.83 0.743-1.115 3.211-0.371 6.431-0.495 9.66-0.372-14.297-1.32-28.663-2.806-43.1-4.459 0 0.496 0 0.991 0 1.486 1.919-0.353 3.405 0.143 4.459 1.486 0.991 0 1.982 0 2.972 0 2.376-0.398 4.358 0.097 5.945 1.486 1.239 0 2.477 0 3.716 0 3.083-0.431 5.808 0.064 8.174 1.486z" />
<glyph unicode="&#xe91f;" d="M779.147 712.174c1.902 0.082 3.634-0.413 5.202-1.486 5.269-6.263 11.213-11.712 17.835-16.348 2.69-2.168 4.421-4.892 5.202-8.174-0.803 0.029-1.546 0.277-2.229 0.743-0.431 2.295-1.419 4.277-2.972 5.945-3.091 0.926-5.819 2.412-8.174 4.459-0.988 0.991-1.984 1.982-2.972 2.972-1.984 2.972-4.459 5.449-7.431 7.431-1.196 1.825-2.683 3.311-4.459 4.459z" />
<glyph unicode="&#xe920;" d="M836.366 703.257c0.743-0.247 1.241-0.743 1.486-1.486-0.193-1.098 0.052-2.089 0.743-2.972 2.534-2.784 5.254-5.261 8.174-7.431 1.308-0.614 2.304-1.604 2.972-2.972 0.349-2.321 1.338-4.303 2.972-5.945-0.78-0.111-1.523 0.013-2.229 0.372-3.693 5.194-8.026 10.024-13.004 14.491-0.84 1.371-1.211 2.857-1.115 4.459 0 0.496 0 0.991 0 1.486z" />
<glyph unicode="&#xe921;" d="M572.563 691.367c1.239 0 2.477 0 3.716 0 0.743 0 1.486 0 2.229 0 1.322-1.37 3.056-1.865 5.202-1.486 0.247 0 0.496 0 0.743 0 0-0.496 0-0.991 0-1.486-2.283-0.236-4.512 0.012-6.688 0.743-2.077 0.325-3.811 1.069-5.202 2.229z" />
<glyph unicode="&#xe922;" d="M584.453 688.395c1.734 0 3.468 0 5.202 0 0.247 0 0.496 0 0.743 0 1.054-1.344 2.54-1.839 4.459-1.486 0.496 0 0.991 0 1.486 0 0-0.496 0-0.991 0-1.486-2.283-0.236-4.512 0.012-6.688 0.743-2.077 0.325-3.811 1.069-5.202 2.229z" />
<glyph unicode="&#xe923;" d="M426.914 688.395c0.743 0 1.486 0 2.229 0 1.982 0 3.963 0 5.945 0-5.667-1.912-11.612-3.398-17.835-4.459 0 0.496 0 0.991 0 1.486 0.496 0 0.991 0 1.486 0 1.248-0.16 1.991 0.336 2.229 1.486 0.743 0 1.486 0 2.229 0 1.695-0.314 2.934 0.181 3.716 1.486z" />
<glyph unicode="&#xe924;" d="M810.357 680.964c0.988-0.247 1.984-0.496 2.972-0.743 0-0.991 0.498-1.486 1.486-1.486 0.988-1.982 2.475-3.468 4.459-4.459 0.988-0.496 1.984-0.991 2.972-1.486-0.401-2.793 0.587-4.775 2.972-5.945 0-0.991 0.498-1.486 1.486-1.486 0-0.991 0.498-1.486 1.486-1.486 0.483-1.438 0.728-2.924 0.743-4.459-6.183 7.174-12.373 14.358-18.578 21.55z" />
<glyph unicode="&#xe925;" d="M596.343 685.422c1.239 0 2.477 0 3.716 0 0.247 0 0.496 0 0.743 0 2.334-1.69 5.059-2.681 8.174-2.972 0.247 0 0.496 0 0.743 0 0.782-1.305 2.021-1.801 3.716-1.486 0.247 0 0.496 0 0.743 0 0.239-1.15 0.982-1.646 2.229-1.486 0.743 0 1.486 0 2.229 0 0.239-1.15 0.982-1.646 2.229-1.486 0.247 0 0.496 0 0.743 0 0.782-1.305 2.021-1.801 3.716-1.486 0.247 0 0.496 0 0.743 0 0.239-1.15 0.982-1.646 2.229-1.486 0.247 0 0.496 0 0.743 0 0.239-1.15 0.982-1.646 2.229-1.486 0-0.496 0-0.991 0-1.486-10.199 4.144-20.603 7.86-31.21 11.147-1.601 0.372-2.84 1.115-3.716 2.229z" />
<glyph unicode="&#xe926;" d="M156.424 676.505c0-0.991 0-1.982 0-2.972s-0.496-1.486-1.486-1.486c-0.918-0.164-1.661-0.66-2.229-1.486-0.763-1.526-1.506-3.012-2.229-4.459-0.918-0.164-1.661-0.66-2.229-1.486-0.763-1.526-1.506-3.012-2.229-4.459-0.805-0.029-1.548-0.277-2.229-0.743-1.486-2.725-2.972-5.449-4.459-8.174-1.264-0.783-2.503-1.526-3.716-2.229 2.006 3.875 4.359 7.59 7.060 11.147 4.521 5.624 9.103 11.074 13.747 16.348z" />
<glyph unicode="&#xe927;" d="M380.099 670.56c0.991 0 1.982 0 2.972 0-0.377-1.010-1.12-1.753-2.229-2.229-2.654-0.291-4.636-1.53-5.945-3.716-6.419-2.645-12.611-5.617-18.578-8.917 0 0.991 0 1.982 0 2.972 0.254 0.623 0.749 0.871 1.486 0.743 2.671 0.354 5.148 1.22 7.431 2.601 1.352 0.55 2.342 1.417 2.972 2.601 2.113 0.31 4.095 1.053 5.945 2.229 0.826 0.568 1.322 1.312 1.486 2.229 0.898 0.545 1.888 0.793 2.972 0.743 0.835-0.934 1.329-0.687 1.486 0.743z" />
<glyph unicode="&#xe928;" d="M146.020 660.157c-1.053-3.141-2.539-6.114-4.459-8.917-4.535-4.294-8.251-9.249-11.147-14.862-0.681-0.466-1.425-0.714-2.229-0.743 0.745 1.123 1.24 2.362 1.486 3.716 0 0.247 0 0.496 0 0.743 1.805 0.568 2.796 1.806 2.972 3.716 0 0.247 0 0.496 0 0.743 1.805 0.568 2.796 1.806 2.972 3.716 0 0.247 0 0.496 0 0.743 1.213 0.703 2.452 1.446 3.716 2.229 1.486 2.725 2.972 5.449 4.459 8.174 0.681 0.466 1.425 0.714 2.229 0.743z" />
<glyph unicode="&#xe929;" d="M655.048 660.157c1.982-0.247 3.963-0.496 5.945-0.743 1.453-0.222 2.444-0.965 2.972-2.229 0.869-1.322 2.107-2.065 3.716-2.229 1.388-0.567 2.627-1.31 3.716-2.229 0.823-1.835 2.309-2.578 4.459-2.229 0.568-1.805 1.806-2.796 3.716-2.972 0.247 0 0.496 0 0.743 0 0.183-2.207 1.421-3.198 3.716-2.972 0.743-0.496 1.486-0.991 2.229-1.486 1.199-1.825 2.685-3.311 4.459-4.459-3.497-0.46-5.479 1.026-5.945 4.459-1.020-0.117-2.012 0.007-2.972 0.372-3.53 2.506-7.246 4.612-11.147 6.316 0 0.743 0 1.486 0 2.229-1.828 0.148-3.562 0.643-5.202 1.486-3.564 2.265-7.032 4.494-10.403 6.688z" />
<glyph unicode="&#xe92a;" d="M875.007 654.955c3.552-2.632 6.034-6.099 7.431-10.403 1.999-1.53 3.24-3.512 3.716-5.945-0.988 0.247-1.984 0.496-2.972 0.743 0 1.239 0 2.477 0 3.716-1.189-0.199-2.177 0.049-2.972 0.743 0.253 1.474-0.238 2.465-1.486 2.972-1.13 2.799-2.371 5.524-3.716 8.174z" />
<glyph unicode="&#xe92b;" d="M128.186 634.891c-3.745-7.671-7.584-15.35-11.518-23.036-2.783-2.911-4.392-6.38-4.83-10.403-0.991 0-1.982 0-2.972 0 0 0.991 0 1.982 0 2.972 1.245 0.508 1.741 1.499 1.486 2.972 1.245 0.508 1.741 1.499 1.486 2.972 0.918 0.164 1.661 0.66 2.229 1.486 1.176 1.85 1.919 3.832 2.229 5.945 1.15 0.239 1.646 0.982 1.486 2.229 0 0.247 0 0.496 0 0.743 1.15 0.239 1.646 0.982 1.486 2.229 0 0.247 0 0.496 0 0.743 0.991 0 1.982 0 2.972 0 0 1.486 0 2.972 0 4.459 1.15 0.239 1.646 0.982 1.486 2.229 0 0.247 0 0.496 0 0.743 1.15 0.239 1.646 0.982 1.486 2.229 0 0.247 0 0.496 0 0.743 0.991 0.247 1.982 0.496 2.972 0.743z" />
<glyph unicode="&#xe92c;" d="M690.717 638.607c0.496 0 0.991 0 1.486 0-0.009-1.963 0.982-2.954 2.972-2.972 0.496 0 0.991 0 1.486 0 0.924-1.674 2.162-3.16 3.716-4.459 0.69-0.884 0.938-1.874 0.743-2.972 1.239 0 2.477 0 3.716 0 0.743-0.496 1.486-0.991 2.229-1.486 0-0.991 0-1.982 0-2.972-4.595 2.113-8.311 5.333-11.147 9.66-3.011 0.534-4.745 2.268-5.202 5.202z" />
<glyph unicode="&#xe92d;" d="M837.109 651.983c5.105-2.281 7.587-6.244 7.431-11.89 2.541 0.276 4.399-0.714 5.573-2.972 2.11-4.663 4.957-8.873 8.546-12.633 0.49-3.007 1.858-5.483 4.087-7.431 0.364-0.961 0.49-1.952 0.372-2.972 1.219 0.015 2.214-0.481 2.972-1.486 0.959-1.867 1.456-3.849 1.486-5.945-0.498 0-0.988 0-1.486 0 0.253 1.474-0.238 2.465-1.486 2.972 0.238 2.264-0.758 3.502-2.972 3.716 0 0.247 0 0.496 0 0.743 0.156 1.248-0.334 1.991-1.486 2.229-0.988 0-1.486 0.496-1.486 1.486-0.312 2.113-1.055 4.095-2.229 5.945-0.572 0.826-1.315 1.322-2.229 1.486 0 0.247 0 0.496 0 0.743-2.021 3.782-4.251 7.497-6.688 11.147-0.572 0.826-1.315 1.322-2.229 1.486-0.743 0.247-1.241 0.743-1.486 1.486 0.193 1.098-0.052 2.089-0.743 2.972-2.021 2.999-4.005 5.972-5.945 8.917z" />
<glyph unicode="&#xe92e;" d="M303.559 619.286c0-0.496 0-0.991 0-1.486-0.496-1.486-1.486-2.477-2.972-2.972-1.982-0.991-3.468-2.477-4.459-4.459-4.459-5.449-9.413-10.403-14.862-14.862-0.496 0-0.991 0-1.486 0 3.559 4.43 7.275 8.764 11.147 13.004 4.131 3.765 8.341 7.357 12.633 10.775z" />
<glyph unicode="&#xe92f;" d="M161.626 629.689c-1.103-3.686-2.589-7.153-4.459-10.403-0.855-2.079-1.845-4.061-2.972-5.945-0.74 0.064-1.359-0.184-1.858-0.743-0.489-2.070-1.108-4.051-1.858-5.945-2.168-2.014-3.654-4.491-4.459-7.431-1.245-0.508-1.741-1.499-1.486-2.972 0-0.496-0.247-0.743-0.743-0.743-1.975-1.463-3.213-3.444-3.716-5.945-0.699-1.152-1.194-2.39-1.486-3.716-1.245-0.508-1.741-1.499-1.486-2.972-1.486-1.982-2.972-3.963-4.459-5.945 1.711 6.154 4.064 12.099 7.060 17.835 1.073 1.23 2.436 1.725 4.087 1.486-0.19 3.202 0.553 6.174 2.229 8.917 2.002 3.029 3.983 6.001 5.945 8.917 1.568 2.888 2.93 5.86 4.087 8.917 1.864 2.252 3.721 4.482 5.573 6.688z" />
<glyph unicode="&#xe930;" d="M724.157 607.396c0.496 0 0.991 0 1.486 0 0.991-0.496 1.982-0.991 2.972-1.486 0.279-1.633 0.774-3.12 1.486-4.459 0.743 0 1.486 0 2.229 0 0.247 0 0.496 0 0.743 0 0-0.496 0-0.991 0-1.486-1.554-0.135-3.040 0.113-4.459 0.743-1.214 2.445-2.7 4.674-4.459 6.688z" />
<glyph unicode="&#xe931;" d="M869.062 603.681c1.248-0.508 1.739-1.499 1.486-2.972 1.063 0.059 2.051-0.189 2.972-0.743 2.058-2.88 3.047-6.101 2.972-9.66-1.144 1.133-1.887 2.619-2.229 4.459-0.572 0.826-1.315 1.322-2.229 1.486 0.238 2.264-0.758 3.502-2.972 3.716 0 0.247 0 0.496 0 0.743 0 0.991 0 1.982 0 2.972z" />
<glyph unicode="&#xe932;" d="M908.447 598.479c3.634-4.302 6.116-9.256 7.431-14.862-0.498 0-0.988 0-1.486 0 0.253 1.474-0.238 2.465-1.486 2.972 0.253 1.474-0.238 2.465-1.486 2.972 0.253 1.474-0.238 2.465-1.486 2.972 0.253 1.474-0.238 2.465-1.486 2.972 0 0.991 0 1.982 0 2.972z" />
<glyph unicode="&#xe933;" d="M107.379 601.451c0.496 0 0.991 0 1.486 0-0.008-1.521-0.256-3.007-0.743-4.459-4.488-9.072-8.946-17.989-13.376-26.752-0.743 0-1.486 0-2.229 0 0.991 1.982 1.982 3.963 2.972 5.945 1.957 1.692 2.947 3.921 2.972 6.688 0.292 1.326 0.787 2.564 1.486 3.716 1.245 0.508 1.741 1.499 1.486 2.972 1.245 0.508 1.741 1.499 1.486 2.972 1.245 0.508 1.741 1.499 1.486 2.972 1.537 1.332 2.529 3.066 2.972 5.202 0 0.247 0 0.496 0 0.743z" />
<glyph unicode="&#xe934;" d="M740.505 591.048c0.496 0 0.991 0 1.486 0 0-0.991 0.496-1.486 1.486-1.486-0.111-2.269 0.884-3.756 2.972-4.459 0-0.991 0.498-1.486 1.486-1.486 0.743-0.247 1.241-0.743 1.486-1.486 0.082-1.648 0.58-3.134 1.486-4.459-2.437 0.395-3.426 1.881-2.972 4.459-4.199 1.411-6.672 4.384-7.431 8.917z" />
<glyph unicode="&#xe935;" d="M750.909 577.672c0.988-0.247 1.984-0.496 2.972-0.743 0-0.247 0-0.496 0-0.743-0.238-2.264 0.758-3.502 2.972-3.716 0-0.247 0-0.496 0-0.743-0.193-1.098 0.052-2.089 0.743-2.972 1.271-0.282 2.014-1.025 2.229-2.229-3.337 0.157-4.823 1.89-4.459 5.202-0.877-0.163-1.62 0.085-2.229 0.743-0.557 1.855-1.3 3.589-2.229 5.202z" />
<glyph unicode="&#xe936;" d="M885.411 572.47c0.743 0 1.486 0 2.229 0-0.126-3.721 1.234-6.693 4.087-8.917 3.017-6.114 4.875-12.555 5.573-19.321-0.498 0-0.988 0-1.486 0 0 0.247 0 0.496 0 0.743 0.312 1.695-0.178 2.934-1.486 3.716 0 0.247 0 0.496 0 0.743-1.427 4.778-3.166 9.485-5.202 14.119-0.572 0.826-1.315 1.322-2.229 1.486 0 0.496 0 0.991 0 1.486 0.253 1.474-0.238 2.465-1.486 2.972 0 0.991 0 1.982 0 2.972z" />
<glyph unicode="&#xe937;" d="M920.337 570.241c1.078-2.463 2.564-4.693 4.459-6.688 0-0.247 0-0.496 0-0.743-0.312-1.695 0.178-2.934 1.486-3.716 0-0.247 0-0.496 0-0.743 0-0.743 0-1.486 0-2.229-1.152 0.239-1.642 0.982-1.486 2.229-0.743 0-1.486 0-2.229 0-1.308 3.833-2.051 7.797-2.229 11.89z" />
<glyph unicode="&#xe938;" d="M265.66 574.7c-3.683-6.4-7.646-12.593-11.89-18.578-0.613-0.658-1.356-0.906-2.229-0.743 0.176-0.959-0.071-1.702-0.743-2.229 0 0.991 0 1.982 0 2.972 0.743 0 1.486 0 2.229 0 0 0.991 0 1.982 0 2.972-0.128 0.737 0.12 1.232 0.743 1.486 1.92 0.407 2.663 1.646 2.229 3.716 0 0.247 0 0.496 0 0.743 2.534-0.086 3.525 1.152 2.972 3.716 0 0.247 0 0.496 0 0.743 2.229-0.247 3.22 0.743 2.972 2.972 0 0.991 0.496 1.486 1.486 1.486 0.824 0.042 1.567 0.29 2.229 0.743z" />
<glyph unicode="&#xe939;" d="M759.826 566.525c0.498 0 0.988 0 1.486 0 0-0.247 0-0.496 0-0.743 0-1.239 0-2.477 0-3.716 0.988 0 1.984 0 2.972 0 0-0.247 0-0.496 0-0.743-0.156-1.248 0.334-1.991 1.486-2.229 0-0.247 0-0.496 0-0.743 0-1.239 0-2.477 0-3.716 0.988 0 1.984 0 2.972 0-0.111-2.269 0.884-3.756 2.972-4.459 0-0.247 0-0.496 0-0.743-0.156-1.248 0.334-1.991 1.486-2.229 0-0.247 0-0.496 0-0.743-0.156-1.248 0.334-1.991 1.486-2.229-0.253-1.474 0.238-2.465 1.486-2.972-0.111-2.269 0.884-3.756 2.972-4.459 0-0.247 0-0.496 0-0.743 0-0.743 0-1.486 0-2.229-1.442 1.551-3.054 3.037-4.83 4.459-1.501 3.704-2.868 7.42-4.087 11.147-0.743 0-1.486 0-2.229 0-0.245 1.486-0.498 2.972-0.743 4.459-1.219-0.015-2.214 0.481-2.972 1.486-0.959 1.867-1.456 3.849-1.486 5.945-0.877-0.163-1.62 0.085-2.229 0.743-0.632 1.419-0.877 2.905-0.743 4.459z" />
<glyph unicode="&#xe93a;" d="M88.801 553.893c-0.148-4.134-0.891-8.097-2.229-11.89-0.743 0-1.486 0-2.229 0-0.247-2.972-0.496-5.945-0.743-8.917-0.743 0-1.486 0-2.229 0-0.191-5.055-0.934-10.009-2.229-14.862-0.743 0-1.486 0-2.229 0 0.314-1.695-0.181-2.934-1.486-3.716 0 0.991 0 1.982 0 2.972 0 0.496 0 0.991 0 1.486 1.344 1.054 1.839 2.54 1.486 4.459 1.247 1.696 2.237 3.678 2.972 5.945-0.137 0.806-0.385 1.549-0.743 2.229-0.176 0.959 0.071 1.702 0.743 2.229 2.123 2.457 3.114 5.429 2.972 8.917 0.071 1.699 0.566 3.185 1.486 4.459 1.895 1.995 3.381 4.225 4.459 6.688z" />
<glyph unicode="&#xe93b;" d="M250.798 553.149c0.212-1.329-0.036-2.567-0.743-3.716-1.952-3.308-3.686-6.776-5.202-10.403-1.697-1.093-3.183-2.332-4.459-3.716 0 0.991 0 1.982 0 2.972 0.918 0.164 1.661 0.66 2.229 1.486 1.176 1.85 1.919 3.832 2.229 5.945 0.119 1.228 0.614 2.219 1.486 2.972 1.127 0.008 1.994 0.503 2.601 1.486 0.149 1.352 0.768 2.343 1.858 2.972z" />
<glyph unicode="&#xe93c;" d="M926.282 556.122c0.498 0 0.988 0 1.486 0 0-0.247 0-0.496 0-0.743 1.278-6.080 3.262-11.777 5.945-17.091 0-0.247 0-0.496 0-0.743-0.312-1.695 0.178-2.934 1.486-3.716 0-0.496 0-0.991 0-1.486 2.445-7.802 4.429-15.729 5.945-23.779-0.498 0-0.988 0-1.486 0-1.858 8.189-3.842 16.363-5.945 24.522-0.743 0-1.486 0-2.229 0-1.025 5.305-2.512 10.507-4.459 15.605-0.528 2.452-0.773 4.929-0.743 7.431z" />
<glyph unicode="&#xe93d;" d="M238.909 535.315c0.496 0 0.991 0 1.486 0-0.109-3.635-0.852-7.103-2.229-10.403-0.743 0-1.486 0-2.229 0 0 0.991 0 1.982 0 2.972 1.245 0.508 1.741 1.499 1.486 2.972 0 0.496 0 0.991 0 1.486 0.991 0 1.486 0.496 1.486 1.486 0 0.496 0 0.991 0 1.486z" />
<glyph unicode="&#xe93e;" d="M235.936 527.884c0-0.991 0-1.982 0-2.972-1.245-0.508-1.741-1.499-1.486-2.972-1.245-0.508-1.741-1.499-1.486-2.972-1.245-0.508-1.741-1.499-1.486-2.972-0.496 0-0.991 0-1.486 0 0.768 3.31 1.883 6.53 3.344 9.66 0.564 1.161 1.431 1.905 2.601 2.229z" />
<glyph unicode="&#xe93f;" d="M132.644 576.929c-0.285-1.805-0.781-3.539-1.486-5.202-0.198-1.832-0.694-3.566-1.486-5.202-1.15-0.239-1.646-0.982-1.486-2.229 0-0.247 0-0.496 0-0.743-1.245-0.508-1.741-1.499-1.486-2.972-1.305-0.782-1.801-2.021-1.486-3.716 0-0.247 0-0.496 0-0.743-1.15-0.239-1.646-0.982-1.486-2.229 0-0.247 0-0.496 0-0.743-1.15-0.239-1.646-0.982-1.486-2.229 0-0.743 0-1.486 0-2.229-1.15-0.239-1.646-0.982-1.486-2.229 0-0.247 0-0.496 0-0.743-1.010-0.377-1.753-1.12-2.229-2.229-0.728-1.922-0.976-3.904-0.743-5.945 0-0.247 0-0.496 0-0.743-1.15-0.239-1.646-0.982-1.486-2.229 0-0.247 0-0.496 0-0.743-1.305-0.782-1.801-2.021-1.486-3.716 0-0.247 0-0.496 0-0.743-1.245-0.508-1.741-1.499-1.486-2.972 0-0.247 0-0.496 0-0.743-1.305-0.782-1.801-2.021-1.486-3.716 0-0.247 0-0.496 0-0.743-1.344-1.054-1.839-2.54-1.486-4.459-1.37-1.322-1.865-3.056-1.486-5.202 0-0.247 0-0.496 0-0.743-1.389-1.587-1.885-3.568-1.486-5.945-1.141-1.133-1.885-2.619-2.229-4.459-0.724-1.667-0.972-3.4-0.743-5.202 0-0.247 0-0.496 0-0.743-0.991-1.982-1.982-3.963-2.972-5.945 0.624 5.474 1.491 10.923 2.601 16.348 2.766 9.847 5.614 19.755 8.546 29.724 0.743 0 1.486 0 2.229 0 0.358 5.207 1.597 10.161 3.716 14.862 0.743 0 1.486 0 2.229 0 0.106 1.309-0.142 2.548-0.743 3.716 4.191 7.624 7.659 15.549 10.403 23.779 0.743 0 1.486 0 2.229 0z" />
<glyph unicode="&#xe940;" d="M907.704 515.251c1.144-1.133 1.887-2.619 2.229-4.459 1.219-3.889 1.962-7.852 2.229-11.89 0.201-1.188-0.052-2.179-0.743-2.972 0.253 1.474-0.238 2.465-1.486 2.972 0 0.496 0 0.991 0 1.486 0.349 1.919-0.141 3.405-1.486 4.459 0 0.496 0 0.991 0 1.486-0.245 2.972-0.498 5.945-0.743 8.917z" />
<glyph unicode="&#xe941;" d="M939.657 508.563c0.498 0 0.988 0 1.486 0s0.988 0 1.486 0c0-1.239 0-2.477 0-3.716-0.156-1.248 0.334-1.991 1.486-2.229 0-0.743 0-1.486 0-2.229 0-1.734 0-3.468 0-5.202 0.535-2.423 0.535-4.899 0-7.431-1.486 6.931-2.972 13.866-4.459 20.807z" />
<glyph unicode="&#xe942;" d="M779.147 533.829c0.498 0 0.988 0 1.486 0 0.498-1.239 0.988-2.477 1.486-3.716 0.022-2.767 1.018-4.996 2.972-6.688 0.238-2.457 1.226-4.439 2.972-5.945-0.253-1.474 0.238-2.465 1.486-2.972 0-0.496 0-0.991 0-1.486 0-0.991 0.498-1.486 1.486-1.486 0-0.496 0-0.991 0-1.486-0.253-1.474 0.238-2.465 1.486-2.972 0-0.247 0-0.496 0-0.743-0.312-1.695 0.178-2.934 1.486-3.716-0.253-1.474 0.238-2.465 1.486-2.972 0-0.247 0-0.496 0-0.743-0.312-1.695 0.178-2.934 1.486-3.716-0.349-1.919 0.141-3.405 1.486-4.459 0-0.247 0-0.496 0-0.743-0.312-1.695 0.178-2.934 1.486-3.716 0-0.496 0-0.991 0-1.486s0-0.991 0-1.486c-0.691-0.794-0.944-1.784-0.743-2.972-3.537 10.346-7.253 20.75-11.147 31.21-2.11 4.277-4.34 8.488-6.688 12.633-0.55 3.29-1.293 6.51-2.229 9.66z" />
<glyph unicode="&#xe943;" d="M944.116 495.187c2.764-10.593 5.239-21.244 7.431-31.954 0-1.239 0-2.477 0-3.716-0.409-2.61 0.082-4.839 1.486-6.688 0-0.247 0-0.496 0-0.743 0.855-12.119 1.352-24.256 1.486-36.412-0.981 2.049-1.471 4.402-1.486 7.060 0.357 4.59 0.483 9.172 0.372 13.747-0.282 0.413-0.654 0.661-1.115 0.743s-0.832 0.33-1.115 0.743c-1.226 16.86-3.574 33.456-7.060 49.788 0.535 2.532 0.535 5.009 0 7.431z" />
<glyph unicode="&#xe944;" d="M67.994 487.756c0.495 0 0.991 0 1.486 0-0.259-5.014-1.002-9.968-2.229-14.862-0.681-0.466-1.424-0.714-2.229-0.743 0 0.496 0 0.991 0 1.486 1.403 1.849 1.898 4.078 1.486 6.688 0 0.247 0 0.496 0 0.743 1.37 1.322 1.865 3.056 1.486 5.202 0 0.496 0 0.991 0 1.486z" />
<glyph unicode="&#xe945;" d="M799.954 483.298c-0.156-1.248 0.334-1.991 1.486-2.229 0-0.496 0-0.991 0-1.486-0.349-1.919 0.141-3.405 1.486-4.459-0.349-1.919 0.141-3.405 1.486-4.459 0.676-1.603 1.167-3.337 1.486-5.202-0.743 0-1.486 0-2.229 0 0.349 1.919-0.141 3.405-1.486 4.459s-1.835 2.54-1.486 4.459c0.119 1.752 0 3.485-0.372 5.202-0.282 0.413-0.654 0.661-1.115 0.743-0.201 1.188 0.052 2.179 0.743 2.972z" />
<glyph unicode="&#xe946;" d="M914.392 479.582c0 0.247 0 0.496 0 0.743 0.743 0 1.486 0 2.229 0 1.39-1.587 1.887-3.568 1.486-5.945-0.126-2.489 0-4.966 0.372-7.431 0.282-0.413 0.654-0.661 1.115-0.743 0-0.496 0.245-0.743 0.743-0.743 0.349-1.919-0.141-3.405-1.486-4.459 0.349 1.919-0.141 3.405-1.486 4.459 0.238 2.769-0.007 5.494-0.743 8.174-0.312 2.316-1.055 4.297-2.229 5.945z" />
<glyph unicode="&#xe947;" d="M101.434 488.499c0-2.477 0-4.954 0-7.431-1.815-4.355-2.805-9.061-2.972-14.119 0-1.239 0-2.477 0-3.716-1.403-1.849-1.899-4.078-1.486-6.688 0-0.247 0-0.496 0-0.743-1.344-1.054-1.839-2.54-1.486-4.459-0.91 0.485-1.406 1.352-1.486 2.601 0.215 1.564 0.834 2.926 1.858 4.087 0.465 1.644 0.341 3.255-0.372 4.83 0.748 1.13 1.243 2.368 1.486 3.716-0.493 2.581-0.74 5.182-0.743 7.803 0.743 0 1.486 0 2.229 0-0.123 2.243 0.001 4.472 0.372 6.688 0.564 2.703 1.43 5.18 2.601 7.431z" />
<glyph unicode="&#xe948;" d="M221.074 493.701c0.496 0 0.991 0 1.486 0-1.367-7.572-3.348-15.003-5.945-22.293-1.338-8.42-2.576-16.842-3.716-25.266-0.743 0-1.486 0-2.229 0 0.125-2.608 0.372-5.209 0.743-7.803-0.965-5.313-1.832-10.639-2.601-15.977-0.496-18.33-0.496-36.66 0-54.99 0.76-0.817 1.132-1.808 1.115-2.972-0.592-3.194-0.84-6.414-0.743-9.66-1.446 3.638-1.942 7.601-1.486 11.89-0.085 18.782-0.085 37.607 0 56.476 0.189 6.715 0.685 13.403 1.486 20.064 0 1.239 0 2.477 0 3.716 1.305 0.782 1.801 2.021 1.486 3.716 0 1.239 0 2.477 0 3.716 1.344 1.054 1.839 2.54 1.486 4.459 0 0.991 0 1.982 0 2.972 1.403 1.849 1.899 4.078 1.486 6.688 0 0.247 0 0.496 0 0.743 1.886 4.427 3.372 9.133 4.459 14.119 0 0.247 0 0.496 0 0.743 1.305 0.782 1.801 2.021 1.486 3.716 0.846 1.861 1.342 3.842 1.486 5.945z" />
<glyph unicode="&#xe949;" d="M802.183 469.922c1.345-1.054 1.835-2.54 1.486-4.459 0.743 0 1.486 0 2.229 0 0.713-3.175 1.211-6.395 1.486-9.66 0-0.247 0-0.496 0-0.743-0.721-1.819-0.973-3.801-0.743-5.945-1.442 3.132-1.932 6.6-1.486 10.403-0.743 0-1.486 0-2.229 0-0.126 3.478-0.372 6.947-0.743 10.403z" />
<glyph unicode="&#xe94a;" d="M953.033 452.087c0.951-4.609 1.821-9.316 2.601-14.119 2.14-24.502 2.393-49.024 0.743-73.567-0.572-7.138-1.687-14.073-3.344-20.807 0 1.982 0 3.963 0 5.945 1.449 16.057 2.445 32.158 2.972 48.302 0 6.214-0.498 12.159-1.486 17.835-0.134 12.156-0.632 24.293-1.486 36.412z" />
<glyph unicode="&#xe94b;" d="M209.184 443.17c-0.801-6.66-1.297-13.348-1.486-20.064-0.99-9.151-1.485-18.564-1.486-28.238 0.001-9.674 0.496-19.087 1.486-28.238-0.456-4.288 0.040-8.251 1.486-11.89 0-2.229 0-4.459 0-6.688-1.083 1.807-1.951 3.789-2.601 5.945-3.447 27.247-3.447 54.494 0 81.742 0.521 2.682 1.388 5.159 2.601 7.431z" />
<glyph unicode="&#xe94c;" d="M65.022 466.206c0.854-0.216 1.349-0.835 1.486-1.858-1.767-9.432-2.51-18.969-2.229-28.61-0.743 0-1.486 0-2.229 0 0.478-8.46-0.017-16.634-1.486-24.522 0 5.697 0 11.394 0 17.091 0 2.725 0 5.449 0 8.174 1.446 3.638 1.942 7.601 1.486 11.89 0 0.991 0 1.982 0 2.972 1.434 2.878 1.93 6.098 1.486 9.66 0 0.743 0 1.486 0 2.229 1.246 0.508 1.741 1.499 1.486 2.972z" />
<glyph unicode="&#xe94d;" d="M921.080 455.060c1.226-5.943 2.214-12.136 2.972-18.578-0.847-4.238-0.847-8.449 0-12.633-0.245 0-0.498 0-0.743 0-0.498 0-0.988 0-1.486 0 0 3.22 0 6.44 0 9.66 0.409 2.61-0.082 4.839-1.486 6.688 0 1.982 0 3.963 0 5.945 0 0.991 0 1.982 0 2.972 0.721 1.819 0.973 3.801 0.743 5.945z" />
<glyph unicode="&#xe94e;" d="M807.385 455.060c-0.379-2.146 0.119-3.88 1.486-5.202 0-0.496 0-0.991 0-1.486-0.111-2.987-0.357-5.959-0.743-8.917 0.743 0 1.486 0 2.229 0-0.513-3.942-0.765-7.905-0.743-11.89 0.743 0 1.486 0 2.229 0 0-0.743 0-1.486 0-2.229-0.721-5.633-0.966-11.33-0.743-17.091-1.776 13.458-3.262 27.082-4.459 40.871-0.23 2.144 0.022 4.126 0.743 5.945z" />
<glyph unicode="&#xe94f;" d="M811.843 425.335c0.416-3.464 1.033-6.932 1.858-10.403 0.498-12.88 0.498-25.761 0-38.642-0.795-4.017-1.412-7.98-1.858-11.89-0.513 5.434-0.758 10.884-0.743 16.348 0.743-0.064 1.36 0.184 1.858 0.743 0.372 8.914 0.498 17.831 0.372 26.752-0.743 0-1.486 0-2.229 0-0.223 5.761 0.022 11.459 0.743 17.091z" />
<glyph unicode="&#xe950;" d="M95.489 444.656c0-0.247 0-0.496 0-0.743-1.422-2.366-1.917-5.091-1.486-8.174 0-0.991 0-1.982 0-2.972-1.468-7.391-1.963-15.069-1.486-23.036 0-0.991 0-1.982 0-2.972-0.496 0-0.991 0-1.486 0-0.081 12.662 0.415 25.295 1.486 37.898 0.991 0 1.982 0 2.972 0z" />
<glyph unicode="&#xe951;" d="M811.1 408.244c0.743 0 1.486 0 2.229 0 0.126-8.921 0-17.838-0.372-26.752-0.498-0.559-1.115-0.807-1.858-0.743 0 0.247 0 0.496 0 0.743s0 0.496 0 0.743c0.988 3.808 1.486 7.895 1.486 12.261s-0.498 8.454-1.486 12.261c0 0.496 0 0.991 0 1.486z" />
<glyph unicode="&#xe952;" d="M923.309 423.849c0.245 0 0.498 0 0.743 0 1.449-3.89 1.947-8.101 1.486-12.633-0.587-0.824-0.959-1.815-1.115-2.972-0.126-3.468-0.245-6.935-0.372-10.403 0.713-9.465 0.713-18.878 0-28.238-0.743 0-1.486 0-2.229 0 0 0.247 0 0.496 0 0.743 1.479 17.569 1.977 35.404 1.486 53.504z" />
<glyph unicode="&#xe953;" d="M90.287 387.437c0.247 0 0.496 0 0.743 0 0.496 0 0.991 0 1.486 0 0-1.486 0-2.972 0-4.459 0-0.496 0-0.991 0-1.486-0.458-0.082-0.83-0.33-1.115-0.743-0.124-3.22-0.247-6.44-0.372-9.66 0.006-3.509 0.502-6.729 1.486-9.66 0-4.459 0-8.917 0-13.376-1.752 12.957-2.495 26.085-2.229 39.385z" />
<glyph unicode="&#xe954;" d="M954.52 415.675c0.988-5.676 1.486-11.621 1.486-17.835-0.528-16.144-1.523-32.245-2.972-48.302-0.743 0.496-1.486 0.991-2.229 1.486-0.23 1.801 0.022 3.535 0.743 5.202 1.315 0.572 2.058 1.563 2.229 2.972-0.788 4.921-1.286 9.874-1.486 14.862 0.074 2.429 0.572 4.659 1.486 6.688 0.461 0.082 0.832 0.33 1.115 0.743 0.609 11.45 0.483 22.844-0.372 34.183z" />
<glyph unicode="&#xe955;" d="M809.614 362.171c0.245-3.468 0.498-6.935 0.743-10.403-0.743 0-1.486 0-2.229 0 0.372-3.457 0.617-6.925 0.743-10.403 0-0.496 0-0.991 0-1.486-1.39-1.587-1.887-3.568-1.486-5.945-1.055 2.966-0.81 5.938 0.743 8.917-1.3 2.784-1.798 5.756-1.486 8.917 0.921 3.577 1.91 7.045 2.972 10.403z" />
<glyph unicode="&#xe956;" d="M209.184 354.74c0.743 0 1.486 0 2.229 0-0.018-4.719 0.23-9.425 0.743-14.119 1.87-9.705 3.852-19.365 5.945-28.981-1.711 3.387-3.198 6.855-4.459 10.403 0 0.247 0 0.496 0 0.743 0.379 2.146-0.116 3.88-1.486 5.202 0 1.239 0 2.477 0 3.716 0.314 1.695-0.181 2.934-1.486 3.716 0 1.486 0 2.972 0 4.459 0.353 1.919-0.143 3.405-1.486 4.459 0 1.239 0 2.477 0 3.716 0 2.229 0 4.459 0 6.688z" />
<glyph unicode="&#xe957;" d="M950.804 351.025c0.743-0.496 1.486-0.991 2.229-1.486 0-1.982 0-3.963 0-5.945 0-0.743 0-1.486 0-2.229-1.345-1.054-1.835-2.54-1.486-4.459 0-1.982 0-3.963 0-5.945-0.825-0.042-1.568-0.29-2.229-0.743 0 3.963 0 7.927 0 11.89 1.553-0.037 2.541 0.706 2.972 2.229-1.063 2.105-1.561 4.335-1.486 6.688z" />
<glyph unicode="&#xe958;" d="M62.049 359.199c1.293-9.235 2.779-18.648 4.459-28.238 0.119-1.378-0.377-2.369-1.486-2.972 0.353 1.919-0.143 3.405-1.486 4.459 0 0.247 0 0.496 0 0.743 0.444 3.562-0.052 6.782-1.486 9.66 0 0.496 0 0.991 0 1.486 0 4.954 0 9.908 0 14.862z" />
<glyph unicode="&#xe959;" d="M95.489 342.107c-0.255-1.474 0.241-2.465 1.486-2.972 0-0.496 0-0.991 0-1.486-0.423-2.845 0.073-5.323 1.486-7.431 0-1.486 0-2.972 0-4.459s0-2.972 0-4.459 0-5.945 0-8.917c-1.014 6.687-2.252 13.375-3.716 20.064 1.219 2.745 0.971 5.346-0.743 7.803 0.137 1.023 0.632 1.642 1.486 1.858z" />
<glyph unicode="&#xe95a;" d="M98.462 321.3c0.496 0 0.991 0 1.486 0 0-0.496 0-0.991 0-1.486-0.423-2.845 0.073-5.323 1.486-7.431-0.236-2.283 0.012-4.512 0.743-6.688 0.312-2.316 1.055-4.297 2.229-5.945 0-0.247 0-0.496 0-0.743 0-1.239 0-2.477 0-3.716-1.305 0.782-1.801 2.021-1.486 3.716-0.743 0-1.486 0-2.229 0-0.476 4.595-1.219 9.053-2.229 13.376 0 2.972 0 5.945 0 8.917z" />
<glyph unicode="&#xe95b;" d="M951.547 330.961c0-0.496 0-0.991 0-1.486-1.189-2.157-1.932-4.635-2.229-7.431-1.152-5.656-1.895-11.353-2.229-17.091 0-0.247 0-0.496 0-0.743-1.427-2.679-2.415-5.651-2.972-8.917-1.308 0.782-1.798 2.021-1.486 3.716 0.743 0 1.486 0 2.229 0-0.32 2.805 0.178 5.406 1.486 7.803-0.817 1.512-1.315 3.123-1.486 4.83 1.219 3.617 1.717 7.333 1.486 11.147 1.204-0.104 2.073 0.392 2.601 1.486-0.364 2.095-0.245 4.077 0.372 5.945 0.661 0.453 1.404 0.701 2.229 0.743z" />
<glyph unicode="&#xe95c;" d="M915.878 317.585c0.706-1.054 0.951-2.292 0.743-3.716-0.461-0.082-0.832-0.33-1.115-0.743-0.372-1.717-0.49-3.45-0.372-5.202-0.743 0-1.486 0-2.229 0 0 0.247 0 0.496 0 0.743 1.39 1.587 1.887 3.568 1.486 5.945 1.248 0.508 1.739 1.499 1.486 2.972z" />
<glyph unicode="&#xe95d;" d="M804.412 325.016c-0.632-3.195-1.122-6.415-1.486-9.66 0-0.247 0-0.496 0-0.743-1.308-0.782-1.798-2.021-1.486-3.716 0-0.743 0-1.486 0-2.229-1.248-0.508-1.739-1.499-1.486-2.972 0-0.496 0-0.991 0-1.486-1.248-0.508-1.739-1.499-1.486-2.972 0-0.991 0-1.982 0-2.972-1.152-0.239-1.642-0.982-1.486-2.229 0-0.743 0-1.486 0-2.229-1.152-0.239-1.642-0.982-1.486-2.229-0.743 0-1.486 0-2.229 0 0.803 2.403 1.293 4.881 1.486 7.431 1.382-0.029 2.371 0.59 2.972 1.858-0.691 0.887-1.189 1.878-1.486 2.972 2.066 5.96 4.050 11.781 5.945 17.463 1.137 0.968 1.88 2.206 2.229 3.716z" />
<glyph unicode="&#xe95e;" d="M218.102 311.64c1.114-0.875 1.857-2.114 2.229-3.716 1.401-4.94 2.64-9.894 3.716-14.862-0.991 1.239-1.982 2.477-2.972 3.716 0 0.743 0 1.486 0 2.229 0.16 1.248-0.336 1.991-1.486 2.229 0 0.743 0 1.486 0 2.229 0.314 1.695-0.181 2.934-1.486 3.716 0 0.247 0 0.496 0 0.743 0 1.239 0 2.477 0 3.716z" />
<glyph unicode="&#xe95f;" d="M909.933 292.319c0.706-1.054 0.951-2.292 0.743-3.716-0.461-0.082-0.832-0.33-1.115-0.743-0.758-4.122-1.873-8.085-3.344-11.89-0.245 0-0.498 0-0.743 0 0.676 2.182 1.167 4.411 1.486 6.688 0.379 2.258 0.877 4.488 1.486 6.688 1.248 0.508 1.739 1.499 1.486 2.972z" />
<glyph unicode="&#xe960;" d="M105.893 291.576c-0.16-1.248 0.336-1.991 1.486-2.229 0-0.247 0-0.496 0-0.743-0.379-2.146 0.116-3.88 1.486-5.202 0-0.247 0-0.496 0-0.743-0.379-2.146 0.116-3.88 1.486-5.202 0-0.247 0-0.496 0-0.743-0.314-1.695 0.181-2.934 1.486-3.716-0.353-1.919 0.143-3.405 1.486-4.459 0-0.743 0-1.486 0-2.229s0-1.486 0-2.229c-1.305 0.782-1.801 2.021-1.486 3.716-0.743 0-1.486 0-2.229 0-1.106 5.425-2.592 10.751-4.459 15.977 1.089 2.242 0.842 4.347-0.743 6.316 0.184 0.901 0.679 1.397 1.486 1.486z" />
<glyph unicode="&#xe961;" d="M939.657 281.173c-1.33-6.715-2.816-13.403-4.459-20.064 0-0.247 0-0.496 0-0.743-1.152-0.239-1.642-0.982-1.486-2.229 0-0.743 0-1.486 0-2.229-0.498 0-0.988 0-1.486 0 1.501 8.472 3.233 16.894 5.202 25.266 0.743 0 1.486 0 2.229 0z" />
<glyph unicode="&#xe962;" d="M904.731 275.971c0.245 0 0.498 0 0.743 0s0.498 0 0.743 0c0.238-2.283-0.015-4.512-0.743-6.688-0.372-1.601-1.115-2.84-2.229-3.716 0 1.486 0 2.972 0 4.459 0.884 0.349 1.382 1.092 1.486 2.229-0.015 0.911-0.26 1.654-0.743 2.229-0.126 0.737 0.119 1.232 0.743 1.486z" />
<glyph unicode="&#xe963;" d="M786.578 272.255c0-0.991 0-1.982 0-2.972-1.152-0.239-1.642-0.982-1.486-2.229 0-0.247 0-0.496 0-0.743-1.152-0.239-1.642-0.982-1.486-2.229 0-0.247 0-0.496 0-0.743-1.248-0.508-1.739-1.499-1.486-2.972-0.988 0-1.486-0.496-1.486-1.486-0.654-0.097-1.144 0.15-1.486 0.743 1.954 4.154 3.693 8.365 5.202 12.633 0.743 0 1.486 0 2.229 0z" />
<glyph unicode="&#xe964;" d="M113.324 264.081c0.496 0 0.991 0 1.486 0 0-0.247 0-0.496 0-0.743-0.314-1.695 0.181-2.934 1.486-3.716 0-0.247 0-0.496 0-0.743 0.84-3.759 1.831-7.474 2.972-11.147-0.743 0-1.486 0-2.229 0-1.232 4.193-2.47 8.404-3.716 12.633 0.769 1.21 0.769 2.449 0 3.716z" />
<glyph unicode="&#xe965;" d="M779.89 255.907c0.126-0.737-0.119-1.232-0.743-1.486-1.248-0.508-1.739-1.499-1.486-2.972-0.914-0.164-1.657-0.66-2.229-1.486-0.743-1.486-1.486-2.972-2.229-4.459 0.186-0.901 0.676-1.397 1.486-1.486 1.984-0.991 3.961-1.982 5.945-2.972-0.097-1.332 0.149-2.57 0.743-3.716-1.248 0.508-1.739 1.499-1.486 2.972-7.164-0.157-9.519 3.063-7.060 9.66 1.286 1.289 2.281 2.775 2.972 4.459 1.070 1.23 2.437 1.725 4.087 1.486z" />
<glyph unicode="&#xe966;" d="M119.269 247.733c0.496 0 0.991 0 1.486 0 0-0.496 0-0.991 0-1.486-0.16-1.248 0.336-1.991 1.486-2.229 0.496-1.239 0.991-2.477 1.486-3.716 0-1.486 0-2.972 0-4.459-0.524 2.796-1.763 5.272-3.716 7.431-0.718 1.409-0.965 2.895-0.743 4.459z" />
<glyph unicode="&#xe967;" d="M898.787 252.192c-0.951-5.335-2.437-10.536-4.459-15.605-0.825-1.908-1.813-3.643-2.972-5.202 0.498 1.982 0.988 3.963 1.486 5.945 0 1.486 0 2.972 0 4.459 1.248 0.508 1.739 1.499 1.486 2.972 1.39 1.587 1.887 3.568 1.486 5.945 0 0.247 0 0.496 0 0.743 0.988 0.247 1.984 0.496 2.972 0.743z" />
<glyph unicode="&#xe968;" d="M932.226 255.907c-1.538-6.834-3.515-13.522-5.945-20.064 0-0.247 0-0.496 0-0.743-1.152-0.239-1.642-0.982-1.486-2.229 0-0.743 0-1.486 0-2.229-0.498 0-0.988 0-1.486 0-1.040-0.446-1.783-1.189-2.229-2.229 2.645 8.057 5.492 15.983 8.546 23.779 0.364 1.214 0.49 2.453 0.372 3.716 0.743 0 1.486 0 2.229 0z" />
<glyph unicode="&#xe969;" d="M235.936 235.843c-3.286-2.024-6.506-4.254-9.66-6.688-1.148-0.707-2.387-0.955-3.716-0.743 0.585 1.192 1.575 1.688 2.972 1.486 0.246 1.354 0.742 2.593 1.486 3.716 0.247 0 0.496 0 0.743 0 1.248-0.16 1.991 0.336 2.229 1.486 0.991 0 1.982 0 2.972 0 0.898 0.545 1.888 0.793 2.972 0.743z" />
<glyph unicode="&#xe96a;" d="M787.321 234.357c1.984-0.247 3.961-0.496 5.945-0.743 1.434-0.453 2.675-1.196 3.716-2.229 0.409-1.92 1.642-2.663 3.716-2.229 1.509-1.744 3.485-2.735 5.945-2.972 0-0.496 0-0.991 0-1.486-3.247 0.134-6.22 1.124-8.917 2.972-1.115 0.997-1.613 2.235-1.486 3.716-2.519 0.257-4.994 0.752-7.431 1.486-0.899 0.184-1.397 0.679-1.486 1.486z" />
<glyph unicode="&#xe96b;" d="M123.727 235.843c0.991-0.743 1.982-1.486 2.972-2.229-0.233-2.041 0.015-4.023 0.743-5.945 0.568-0.826 1.312-1.322 2.229-1.486 0.991-2.229 1.982-4.459 2.972-6.688-0.496 0-0.991 0-1.486 0-1.409 1.737-2.4 3.719-2.972 5.945-0.743 0-1.486 0-2.229 0-1.071 3.38-1.814 6.848-2.229 10.403z" />
<glyph unicode="&#xe96c;" d="M923.309 230.642c-1.835-5.258-3.82-10.46-5.945-15.605 0-0.245 0-0.498 0-0.743-1.248-0.505-1.739-1.501-1.486-2.972 0-0.498 0-0.988 0-1.486-0.988-0.743-1.984-1.486-2.972-2.229 2.363 7.126 5.090 14.060 8.174 20.807 0.446 1.040 1.189 1.783 2.229 2.229z" />
<glyph unicode="&#xe96d;" d="M222.56 228.412c-3.201-2.844-6.917-4.949-11.147-6.316-0.637-0.512-1.132-1.131-1.486-1.858-5.471-2.479-10.921-4.957-16.348-7.431 0.247 0.988 0.496 1.984 0.743 2.972 0.247 0 0.496 0 0.743 0 1.248-0.156 1.991 0.334 2.229 1.486 0.247 0 0.496 0 0.743 0 1.248-0.16 1.991 0.336 2.229 1.486 0.247 0 0.496 0 0.743 0 1.754 0.129 3.488 0.377 5.202 0.743 0 0.743 0 1.486 0 2.229 2.269-0.108 3.756 0.882 4.459 2.972 1.239 0.496 2.477 0.991 3.716 1.486 0.743 0 1.486 0 2.229 0 1.999 0.777 3.981 1.52 5.945 2.229z" />
<glyph unicode="&#xe96e;" d="M809.614 224.697c1.62-0.86 3.106-1.85 4.459-2.972 0.505-1.245 1.501-1.741 2.972-1.486 0.238-1.15 0.981-1.646 2.229-1.486 0.245 0 0.498 0 0.743 0 0-0.496 0-0.991 0-1.486-0.988 0-1.984 0-2.972 0-1.91 0.955-3.894 1.945-5.945 2.972-1.189 1.248-1.687 2.734-1.486 4.459z" />
<glyph unicode="&#xe96f;" d="M892.842 237.329c-0.498-1.982-0.988-3.963-1.486-5.945-2.051-3.244-3.909-6.712-5.573-10.403-0.216-1.798-0.587-3.533-1.115-5.202-1.345-0.921-2.579-1.91-3.716-2.972 0 0.743 0 1.486 0 2.229 0 0.245 0 0.498 0 0.743 0.914 0.163 1.657 0.661 2.229 1.486 0.751 2.262 1.494 4.491 2.229 6.688 0 0.247 0 0.496 0 0.743 1.308 0.782 1.798 2.021 1.486 3.716 0 0.247 0 0.496 0 0.743 1.152 0.239 1.642 0.982 1.486 2.229 0 0.247 0 0.496 0 0.743 1.152 0.239 1.642 0.982 1.486 2.229 0 0.247 0 0.496 0 0.743 0.988 0.743 1.984 1.486 2.972 2.229z" />
<glyph unicode="&#xe970;" d="M817.045 217.266c0.988 0 1.984 0 2.972 0 0.743 0 1.486 0 2.229 0 0.245 0 0.498 0 0.743 0 0.706-2.088 2.192-3.084 4.459-2.972 0-0.498 0-0.988 0-1.486-1.018-0.119-2.014 0.007-2.972 0.372-2.623 1.182-5.098 2.549-7.431 4.087z" />
<glyph unicode="&#xe971;" d="M884.668 215.779c-2.371-3.76-4.355-7.721-5.945-11.89-0.743 0-1.486 0-2.229 0 0 0.988 0 1.984 0 2.972 1.248 0.505 1.739 1.501 1.486 2.972 1.248 0.505 1.739 1.501 1.486 2.972 0.498 0 0.988 0 1.486 0 1.137 1.063 2.371 2.051 3.716 2.972z" />
<glyph unicode="&#xe972;" d="M833.393 209.835c0.743 0 1.486 0 2.229 0 0.245 0 0.498 0 0.743 0 0-0.988 0.498-1.486 1.486-1.486 0.498 0 0.988 0 1.486 0 0.453-2.378 1.94-3.366 4.459-2.972 0.238-1.152 0.981-1.642 2.229-1.486 0.245 0 0.498 0 0.743 0 0-0.498 0-0.988 0-1.486-3.314-0.26-6.041 0.855-8.174 3.344-1.761 0.639-3.493 1.256-5.202 1.858 0 0.743 0 1.486 0 2.229z" />
<glyph unicode="&#xe973;" d="M99.205 215.036c2.497-4.734 4.726-9.69 6.688-14.862-0.991 0.743-1.982 1.486-2.972 2.229 0 0.245 0 0.498 0 0.743 0.16 1.248-0.336 1.992-1.486 2.229 0.255 1.471-0.241 2.467-1.486 2.972 0.255 1.471-0.241 2.467-1.486 2.972-0.211 1.419 0.036 2.66 0.743 3.716z" />
<glyph unicode="&#xe974;" d="M193.579 212.807c-0.585-1.189-1.575-1.687-2.972-1.486 0-0.743 0-1.486 0-2.229-4.107-0.817-8.070-2.058-11.89-3.716 0.059-1.063-0.189-2.051-0.743-2.972-2.148-0.877-4.378-1.367-6.688-1.486 0 0.498 0 0.988 0 1.486 1.474-0.253 2.465 0.238 2.972 1.486 2.264-0.238 3.502 0.758 3.716 2.972 0.247 0 0.496 0 0.743 0 1.248-0.156 1.991 0.334 2.229 1.486 0.247 0 0.496 0 0.743 0 1.248-0.156 1.991 0.334 2.229 1.486 0.247 0 0.496 0 0.743 0 1.248-0.156 1.991 0.334 2.229 1.486 2.182 0.676 4.411 1.167 6.688 1.486z" />
<glyph unicode="&#xe975;" d="M293.155 182.34c-0.496 0-0.991 0-1.486 0-0.991 0-1.486 0.498-1.486 1.486-2.245 1.746-4.227 3.73-5.945 5.945 0.363 3.292-1.123 5.023-4.459 5.202 0 0.245 0 0.498 0 0.743-1.053 1.739-2.044 3.478-2.972 5.202-0.991 0-1.982 0-2.972 0 0 0.245 0 0.498 0 0.743 0.377 3.337-1.109 5.075-4.459 5.202-2.005-0.513-3.987-1.011-5.945-1.486 0-0.743 0-1.486 0-2.229-0.21-0.951-0.705-1.694-1.486-2.229-3.839 0.074-6.316-1.665-7.431-5.202 0-0.498-0.247-0.743-0.743-0.743-4.064-0.594-6.788-2.824-8.174-6.688 0-0.498-0.247-0.743-0.743-0.743-1.275-0.097-2.514-0.342-3.716-0.743-0.163 0.877 0.085 1.62 0.743 2.229 9.226 7.26 18.391 14.446 27.495 21.55 4.6-5.7 9.554-11.147 14.862-16.348 0.718-1.412 0.965-2.898 0.743-4.459 2.639-1.382 5.116-3.121 7.431-5.202 0.466-0.684 0.714-1.427 0.743-2.229z" />
<glyph unicode="&#xe976;" d="M105.893 200.174c0.743 0 1.486 0 2.229 0 1.683-4.86 3.789-9.564 6.316-14.119 2.602-2.415 4.088-5.388 4.459-8.917 3.752-3.322 3.133-5.298-1.858-5.945-0.128 0.736 0.12 1.234 0.743 1.486 0.741-0.022 1.237 0.349 1.486 1.115-0.676 1.3-1.667 2.17-2.972 2.601 0 0.245 0 0.498 0 0.743-0.122 2.415-0.865 4.644-2.229 6.688-0.568 0.825-1.312 1.323-2.229 1.486-1.982 4.957-3.963 9.906-5.945 14.862z" />
<glyph unicode="&#xe977;" d="M131.158 219.495c0.496 0 0.991 0 1.486 0-0.16-1.248 0.336-1.991 1.486-2.229-0.255-1.471 0.241-2.467 1.486-2.972-0.255-1.471 0.241-2.467 1.486-2.972-0.255-1.471 0.241-2.467 1.486-2.972 0-0.245 0-0.498 0-0.743-0.16-1.248 0.336-1.992 1.486-2.229 0-0.245 0-0.498 0-0.743 1.657-4.555 3.886-8.769 6.688-12.633 0.623-0.253 0.871-0.751 0.743-1.486 0-0.988 0.496-1.486 1.486-1.486-0.432-1.063-1.051-2.051-1.858-2.972-5.255 9.764-10.332 19.67-15.234 29.724-0.406 1.215-0.654 2.453-0.743 3.716z" />
<glyph unicode="&#xe978;" d="M757.597 201.66c-2.125 1.434-4.355 2.675-6.688 3.716-0.498 0-0.988 0-1.486 0-0.015 1.992-1.011 2.98-2.972 2.972 0-1.241 0-2.475 0-3.716-0.498-0.743-0.988-1.486-1.486-2.229-2.202-1.702-4.431-3.433-6.688-5.202-0.69-0.884-0.938-1.873-0.743-2.972-0.21-0.951-0.705-1.694-1.486-2.229-0.991-0.245-1.982-0.498-2.972-0.743 1.798 1.858 3.036 4.087 3.716 6.688 4.051 2.564 7.022 6.034 8.917 10.403 0.936 0.654 1.806 1.397 2.601 2.229 3.708-2.348 6.807-5.321 9.289-8.917z" />
<glyph unicode="&#xe979;" d="M857.173 196.459c0.743 0 1.486 0 2.229 0 0.245 0 0.498 0 0.743 0 0.706-2.088 2.192-3.084 4.459-2.972 0.238-1.152 0.981-1.642 2.229-1.486 0.245 0 0.498 0 0.743 0 0-0.988 0.498-1.486 1.486-1.486 0.022-0.743-0.349-1.234-1.115-1.486-2.214 1.419-4.57 2.534-7.060 3.344-1.256 1.442-2.497 2.802-3.716 4.087z" />
<glyph unicode="&#xe97a;" d="M244.853 187.541c-1.788-2.162-3.77-4.265-5.945-6.316-2.288-1.048-4.517-2.162-6.688-3.344 0 0.498 0 0.988 0 1.486 0 0.988 0.496 1.486 1.486 1.486 1.447 0.721 2.933 1.464 4.459 2.229 0.826 0.572 1.322 1.315 1.486 2.229 0.991 0 1.486 0.498 1.486 1.486 1.202 0.401 2.44 0.647 3.716 0.743z" />
<glyph unicode="&#xe97b;" d="M736.046 192c-0.267-1.39-1.010-2.504-2.229-3.344-1.855-1.241-3.588-2.601-5.202-4.087-0.496-0.245-0.991-0.498-1.486-0.743 0 0.498 0 0.988 0 1.486 0.991 1.984 2.477 3.47 4.459 4.459 0.991 0 1.486 0.498 1.486 1.486 0.991 0.245 1.982 0.498 2.972 0.743z" />
<glyph unicode="&#xe97c;" d="M898.044 180.11c0-1.241 0-2.475 0-3.716-0.743 0.022-1.234-0.349-1.486-1.115 0.394-1.278 0.892-1.397 1.486-0.372 1.724-0.364 3.21-1.107 4.459-2.229 0-0.498 0-0.988 0-1.486-2.281 0.52-4.511 1.263-6.688 2.229-0.817 1.999-0.699 3.983 0.372 5.945 0.498 0.557 1.115 0.81 1.858 0.743z" />
<glyph unicode="&#xe97d;" d="M727.129 185.312c0-0.498 0-0.988 0-1.486-1.7-1.189-3.434-2.43-5.202-3.716-0.466-0.684-0.714-1.427-0.743-2.229 0.128-0.736-0.12-1.234-0.743-1.486-3.325-0.669-5.307-2.645-5.945-5.945-1.734-1.241-3.22-2.727-4.459-4.459-1.563 0.223-3.050-0.022-4.459-0.743-0.808-1.063-1.8-1.806-2.972-2.229 1.436 3.166 3.913 4.897 7.431 5.202 1.734 2.229 3.468 4.459 5.202 6.688 3.658 3.886 7.621 7.349 11.89 10.403z" />
<glyph unicode="&#xe97e;" d="M232.221 179.367c0-0.498 0-0.988 0-1.486-0.496-1.486-1.486-2.475-2.972-2.972-3.292 0.364-5.026-1.122-5.202-4.459-0.537-0.78-1.28-1.278-2.229-1.486-1.239 0-2.477 0-3.716 0-0.085-1.65-0.58-3.136-1.486-4.459-1.020-1.271-2.258-2.259-3.716-2.972-1.239 0-2.477 0-3.716 0 0-0.988 0-1.984 0-2.972-1.263-0.022-2.254-0.513-2.972-1.486 0.729 3.656 2.958 5.885 6.688 6.688 2.342 3.344 5.314 5.819 8.917 7.431 1.239 1.486 2.477 2.972 3.716 4.459 2.602 0.676 4.832 1.917 6.688 3.716z" />
<glyph unicode="&#xe97f;" d="M113.324 171.193c0.991 0 1.982 0 2.972 0-0.239-1.152-0.982-1.642-2.229-1.486 0.059-1.063-0.189-2.051-0.743-2.972-2.759-0.594-5.36-1.59-7.803-2.972-1.070 0.483-2.185 0.728-3.344 0.743-0.607-3.337-2.588-5.068-5.945-5.202 0.62 1.070 1.611 1.813 2.972 2.229 0.466 0.684 0.714 1.427 0.743 2.229 0.869 1.323 2.107 2.066 3.716 2.229 3.244 0.134 6.216 1.122 8.917 2.972 0.466 0.684 0.714 1.427 0.743 2.229z" />
<glyph unicode="&#xe980;" d="M902.502 171.193c1.204-0.401 2.437-0.647 3.716-0.743 0.498 0 0.743-0.245 0.743-0.743 0.059-0.929 0.55-1.546 1.486-1.858 1.211-0.364 2.452-0.49 3.716-0.372 0.899-0.32 1.642-0.817 2.229-1.486-2.081-0.847-4.31-0.966-6.688-0.372-1.94 1.731-3.678 3.589-5.202 5.573z" />
<glyph unicode="&#xe981;" d="M702.607 163.019c0-0.988 0-1.984 0-2.972-0.496-0.498-0.991-0.988-1.486-1.486-1.486 0-2.972 0-4.459 0-0.085-1.65-0.58-3.136-1.486-4.459-0.351-1.048-1.095-1.538-2.229-1.486-1.239 0-2.477 0-3.716 0 1.19 1.167 2.677 1.665 4.459 1.486 0.793 4.013 3.27 6.242 7.431 6.688 0.328 0.921 0.824 1.665 1.486 2.229z" />
<glyph unicode="&#xe982;" d="M927.768 156.331c1.717-0.364 3.448-0.617 5.202-0.743 0.245 0 0.498 0 0.743 0 0.238-1.152 0.981-1.642 2.229-1.486 0.498 0 0.743-0.245 0.743-0.743 0-0.245 0-0.498 0-0.743-1.969 0.424-3.946 0.921-5.945 1.486-1.36 0.416-2.348 1.159-2.972 2.229z" />
</font>
</defs>
</svg>
